Subcategories

Cecil Taylor - The Great Paris Concert (1966) {Black Lion BLCD760201 rel 1994}

Posted By: ruskaval
Cecil Taylor - The Great Paris Concert (1966) {Black Lion BLCD760201 rel 1994}

Cecil Taylor - The Great Paris Concert (1966) {Black Lion BLCD760201 rel 1994}
EAC rip (secure mode) | FLAC (tracks)+CUE+LOG -> 286 Mb | MP3 @320 -> 139 Mb
Full Artwork @ 300 dpi (jpg) -> 38 Mb | 5% repair rar
© 1966, 1994 Black Lion | BLCD760201
Jazz / Avant-Garde Jazz / Free Jazz / Piano

By the time of his Paris concert, Cecil Taylor's quartet had reached a particularly high level of musical communication. Not only did altoist Jimmy Lyons (whose sound but not choice of notes was sometimes close to Charlie Parker's) find a place for himself in the dense ensembles, but one can hear him and the pianist/leader echoing each other's phrases in spots.

The greatly underrated Alan Silva (on the evidence of this record) was one of Taylor's strongest bassists, at times bowing with the ferocity of a horn; in addition, the flexible drummer Andrew Cyrille "battles" Taylor quite successfully. Most surprising is the use of space during the first part of "Student Studies" and the various sounds utilized on "Amplitude," predating the innovations of the Art Ensemble of Chicago. A very interesting set, recommended for the open-eared.
Cecil Taylor - The Great Paris Concert (1966) {Black Lion BLCD760201 rel 1994}


Personnel:
Cecil Taylor, piano
Jimmy Lyons, alto saxophone
Alan Silva, bass
Andrew Cyrille, drums

tracklist:
01 - Student Studies part 1
02 - Student Studies part 2
03 - Amplitude
04 - Niggle Feuigle

EAC extraction logfile from 14. July 2009, 11:05 for CD
Cecil Taylor / The Great Paris Concert: Sudent Studies

Used drive : PBDS CDRWDVD DH-48C2S Adapter: 1 ID: 1
Read mode : Secure with NO C2, accurate stream, disable cache
Read offset correction : 6
Overread into Lead-In and Lead-Out : No

Used output format : C:\Program Files\FLAC\flac.exe (User Defined Encoder)
128 kBit/s
Additional command line options : -V -8 -T "artist=%a" -T "title=%t" -T "album=%g" -T "date=%y" -T "tracknumber=%n" -T "genre=%m" %s

Other options :
Fill up missing offset samples with silence : Yes
Delete leading and trailing silent blocks : No
Native Win32 interface for Win NT & 2000


Track 1
Filename D:\DOWNLOADS\_UPLOADS\Cecil Taylor - The Great Paris Concert- Sudent Studies (1966) [FLAC]\01 - Sudent Studies part 1.wav

Pre-gap length 0:00:02.00

Peak level 73.7 %
Track quality 100.0 %
Test CRC F1042C1C
Copy CRC F1042C1C
Copy OK

Track 2
Filename D:\DOWNLOADS\_UPLOADS\Cecil Taylor - The Great Paris Concert- Sudent Studies (1966) [FLAC]\02 - Sudent Studies part 2.wav

Peak level 78.7 %
Track quality 100.0 %
Test CRC E00EB019
Copy CRC E00EB019
Copy OK

Track 3
Filename D:\DOWNLOADS\_UPLOADS\Cecil Taylor - The Great Paris Concert- Sudent Studies (1966) [FLAC]\03 - Amplitude.wav

Peak level 71.0 %
Track quality 100.0 %
Test CRC FB0EBF79
Copy CRC FB0EBF79
Copy OK

Track 4
Filename D:\DOWNLOADS\_UPLOADS\Cecil Taylor - The Great Paris Concert- Sudent Studies (1966) [FLAC]\04 - Niggle Feuigle.wav

Peak level 79.6 %
Track quality 100.0 %
Test CRC 25B57B43
Copy CRC 25B57B43
Copy OK

No errors occured


End of status report


Cecil Taylor - The Great Paris Concert (1966) {Black Lion BLCD760201 rel 1994}

Cecil Taylor - The Great Paris Concert (1966) {Black Lion BLCD760201 rel 1994}


see more Cecil Taylor…


===