Subcategories

Celso Murilo - Mr. Ritmo (1961) {Whatmusic WMCD-0074 rel 2003}

Posted By: ruskaval
Celso Murilo - Mr. Ritmo (1961) {Whatmusic WMCD-0074 rel 2003}

Celso Murilo - Mr. Ritmo (1961) {Whatmusic WMCD-0074 rel 2003}
EAC rip (secure mode) | FLAC (tracks)+CUE+LOG -> 180 Mb | MP3 @320 -> 62 Mb
Full Artwork @ 300 dpi (jpg) -> 7 Mb | 5% repair rar
© 1961, 2003 Pawal / Whatmusic.com | WMCD-0074
Jazz / Latin Jazz / Groove / Organ

A very groovy set from keyboardist Celso Murilo – a 60s album of organ and piano instrumentals with a really cool groove! The record follows in the best tradition of small combo bossa sessions – mixing together a strongly rhythmic approach that includes percussion by the great Rubens Bassini, plus backing on trumpet, flute, and timbales – all set to the pace of Murilo's sweet lines on the keys! The style's more expansive than 60s work by Walter Wanderley or Ed Lincoln – more open to influences from American Latin music, in addition to the core samba and bossa sounds that inform the work. The whole thing's great – a driving, lively little set that's a delight throughout!
Celso Murilo - Mr. Ritmo (1961) {Whatmusic WMCD-0074 rel 2003}


Musicians
Organ, Piano Celso Murilo
Drums, Timbales Ohana
Bongos, Pandeiro Rubens Bassini
Tumbadora Jorginho
Bass Tiao Marinho
Flute Cepinha
Trumpet Maurillo
Vocals Edgar

Tracklist
01 - Implorar-Ai Que Saudades Da Amelia
02 - Tea For Two
03 - Nao Deixa A Pereca Cair
04 - Rico Vacilon
05 - Chorou Chorou
06 - Merengue En Copa
07 - Los Marcianos
08 - Teleco-Teco No 1
09 - Cha-Cha Celso
10 - Pau Pereira
11 - Ritmo Sabroso
12 - Rosa Morena

Exact Audio Copy V1.1 from 23. June 2015

EAC extraction logfile from 8. February 2017, 21:05

Celso Murilo / Mr Ritmo

Used drive : MATSHITADVD+-RW SW830 Adapter: 1 ID: 0

Read mode : Secure
Utilize accurate stream : Yes
Defeat audio cache : Yes
Make use of C2 pointers : No

Read offset correction : 6
Overread into Lead-In and Lead-Out : No
Fill up missing offset samples with silence : Yes
Delete leading and trailing silent blocks : No
Null samples used in CRC calculations : Yes
Used interface : Native Win32 interface for Win NT & 2000
Gap handling : Appended to previous track

Used output format : User Defined Encoder
Selected bitrate : 896 kBit/s
Quality : High
Add ID3 tag : No
Command line compressor : C:\Program Files (x86)\Exact Audio Copy\Flac\flac.exe
Additional command line options : -8 -V -T "ARTIST=%artist%" -T "TITLE=%title%" -T "ALBUM=%albumtitle%" -T "DATE=%year%" -T "TRACKNUMBER=%tracknr%" -T "TOTALTRACKS=%numtracks%" -T "GENRE=%genre%" -T "ALBUMARTIST=%albumartist%" -T "ALBUM ARTIST=%albumartist%" -T "COMMENT=EAC Secure Mode, Test & Copy, AccurateRip, FLAC -8" %source%


TOC of the extracted CD

Track | Start | Length | Start sector | End sector
––––––––––––––––––––––––––––-
1 | 0:00.00 | 2:36.30 | 0 | 11729
2 | 2:36.30 | 2:12.70 | 11730 | 21699
3 | 4:49.25 | 1:56.40 | 21700 | 30439
4 | 6:45.65 | 1:57.12 | 30440 | 39226
5 | 8:43.02 | 2:09.30 | 39227 | 48931
6 | 10:52.32 | 3:13.50 | 48932 | 63456
7 | 14:06.07 | 2:12.03 | 63457 | 73359
8 | 16:18.10 | 2:59.22 | 73360 | 86806
9 | 19:17.32 | 1:43.43 | 86807 | 94574
10 | 21:01.00 | 1:38.22 | 94575 | 101946
11 | 22:39.22 | 1:44.28 | 101947 | 109774
12 | 24:23.50 | 1:55.70 | 109775 | 118469


Track 1

Filename G:\New Rips\Celso Murilo - Mr Ritmo (1961) [FLAC]\01 - Implorar-Ai Que Saudades Da Amelia.wav

Pre-gap length 0:00:02.00

Peak level 99.9 %
Extraction speed 3.8 X
Track quality 100.0 %
Test CRC 7D81A547
Copy CRC 7D81A547
Accurately ripped (confidence 1) [64DBF6F7] (AR v2)
Copy OK

Track 2

Filename G:\New Rips\Celso Murilo - Mr Ritmo (1961) [FLAC]\02 - Tea For Two.wav

Peak level 99.5 %
Extraction speed 4.1 X
Track quality 100.0 %
Test CRC 14B167CD
Copy CRC 14B167CD
Accurately ripped (confidence 1) [F076A756] (AR v2)
Copy OK

Track 3

Filename G:\New Rips\Celso Murilo - Mr Ritmo (1961) [FLAC]\03 - Nao Deixa A Pereca Cair.wav

Peak level 97.5 %
Extraction speed 3.0 X
Track quality 99.9 %
Test CRC 5469160F
Copy CRC 5469160F
Accurately ripped (confidence 1) [B6BA43D4] (AR v2)
Copy OK

Track 4

Filename G:\New Rips\Celso Murilo - Mr Ritmo (1961) [FLAC]\04 - Rico Vacilon.wav

Peak level 99.2 %
Extraction speed 3.1 X
Track quality 99.9 %
Test CRC 9F47AF98
Copy CRC 9F47AF98
Accurately ripped (confidence 1) [6CBE5039] (AR v2)
Copy OK

Track 5

Filename G:\New Rips\Celso Murilo - Mr Ritmo (1961) [FLAC]\05 - Chorou Chorou.wav

Peak level 99.9 %
Extraction speed 4.5 X
Track quality 100.0 %
Test CRC E5CA891F
Copy CRC E5CA891F
Accurately ripped (confidence 1) [9D6A84D6] (AR v2)
Copy OK

Track 6

Filename G:\New Rips\Celso Murilo - Mr Ritmo (1961) [FLAC]\06 - Merengue En Copa.wav

Peak level 99.9 %
Extraction speed 5.3 X
Track quality 100.0 %
Test CRC B0C77355
Copy CRC B0C77355
Accurately ripped (confidence 1) [FAFAD33F] (AR v2)
Copy OK

Track 7

Filename G:\New Rips\Celso Murilo - Mr Ritmo (1961) [FLAC]\07 - Los Marcianos.wav

Peak level 98.9 %
Extraction speed 5.0 X
Track quality 100.0 %
Test CRC E6B5290B
Copy CRC E6B5290B
Accurately ripped (confidence 1) [3A6B0CFC] (AR v2)
Copy OK

Track 8

Filename G:\New Rips\Celso Murilo - Mr Ritmo (1961) [FLAC]\08 - Teleco-Teco No 1.wav

Peak level 96.0 %
Extraction speed 4.3 X
Track quality 99.9 %
Test CRC 0DED8A96
Copy CRC 0DED8A96
Accurately ripped (confidence 1) [854D823C] (AR v2)
Copy OK

Track 9

Filename G:\New Rips\Celso Murilo - Mr Ritmo (1961) [FLAC]\09 - Cha-Cha Celso.wav

Peak level 99.9 %
Extraction speed 3.6 X
Track quality 99.8 %
Test CRC 64DAD715
Copy CRC 64DAD715
Accurately ripped (confidence 1) [38A4E9B6] (AR v2)
Copy OK

Track 10

Filename G:\New Rips\Celso Murilo - Mr Ritmo (1961) [FLAC]\10 - Pau Pereira.wav

Peak level 99.9 %
Extraction speed 3.6 X
Track quality 99.8 %
Test CRC CAAE26FD
Copy CRC CAAE26FD
Accurately ripped (confidence 1) [B2B5A8B9] (AR v2)
Copy OK

Track 11

Filename G:\New Rips\Celso Murilo - Mr Ritmo (1961) [FLAC]\11 - Ritmo Sabroso.wav

Peak level 99.9 %
Extraction speed 5.5 X
Track quality 100.0 %
Test CRC 823A33D9
Copy CRC 823A33D9
Accurately ripped (confidence 1) [0AE6AB09] (AR v2)
Copy OK

Track 12

Filename G:\New Rips\Celso Murilo - Mr Ritmo (1961) [FLAC]\12 - Rosa Morena.wav

Peak level 99.9 %
Extraction speed 5.7 X
Track quality 100.0 %
Test CRC 6AB275BB
Copy CRC 6AB275BB
Accurately ripped (confidence 1) [7E0FEB82] (AR v2)
Copy OK


All tracks accurately ripped

No errors occurred

End of status report

–– CUETools DB Plugin V2.1.6

[CTDB TOCID: sE6.3V17lFurNNkW4gE.YiLqfBs-] found
Submit result: sE6.3V17lFurNNkW4gE.YiLqfBs- has been confirmed
Track | CTDB Status
1 | (2/2) Accurately ripped
2 | (2/2) Accurately ripped
3 | (2/2) Accurately ripped
4 | (2/2) Accurately ripped
5 | (2/2) Accurately ripped
6 | (2/2) Accurately ripped
7 | (2/2) Accurately ripped
8 | (2/2) Accurately ripped
9 | (2/2) Accurately ripped
10 | (2/2) Accurately ripped
11 | (2/2) Accurately ripped
12 | (2/2) Accurately ripped


==== Log checksum 2CD049CF235F0BA1EDE40492EA3044227B8441B2A06D13C6BF6A07911786C70E ====


Celso Murilo - Mr. Ritmo (1961) {Whatmusic WMCD-0074 rel 2003}

Celso Murilo - Mr. Ritmo (1961) {Whatmusic WMCD-0074 rel 2003}



===