Subcategories

Celtic Thunder - Legacy, Vol. 1 (2016)

Posted By: delpotro
Celtic Thunder - Legacy, Vol. 1 (2016)

Celtic Thunder - Legacy, Vol. 1 (2016)
EAC Rip | FLAC (tracks+log+.cue) | 00:50:31 | 338 Mb
Folk, Celtic | Label: Legacy Recordings

Celtic Thunder’s ‘Legacy Volume One’ presents many of the best-loved numbers from the group’s nine standing-room-only world tours to-date. Song selections include “Heartland,” the group’s big opening number, along with crowd-pleasing favorites like “Raggle Taggle Gypsy,” “Galway Girl,” and “A Place in the Choir” alongside rousing anthems “Caledonia” and “Ireland’s Call.”

‘Legacy Volume One’ finds Celtic Thunder soloists Colm Keegan, Keith Harkin, Ryan Kelly, Emmett O’Hanlon and Neil Byrne reunited with guest artist Damian McGinty, an original member of Celtic Thunder who went on to win Fox’s "The Glee Project before landing a recurring role (as “Rory Flanagan”) in the hit series “Glee!”.

‘Legacy Volume One’ offers music lovers a wide variety of solo selections and fan favorites including Damian’s “Buachaille On Eirne,” Ryan’s “Ride On,” Keith’s “The Mountains of Mourne,” Neil’s “Noreen,” and Emmett’s “Danny Boy” alongside contemporary hits like “Falling Slowly” and “Black Velvet Band”. The Celtic Thunder vocalists are backed by the eight-piece Celtic Thunder Band on strings, guitars, percussion, whistles, pipes and more, led by musical director is David Munro, who also plays keyboards in the show.
Tracklist:
01. Heartland
02. Falling Slowly
03. The Dutchman
04. Black Velvet Band
05. Caledonia
06. Ride On
07. Buchaille On Eirne
08. Noreen
09. The Galway Girl
10. A Place In The Choir
11. Mountains Of Mourne
12. Danny Boy
13. Cal - Local Hero
14. Ireland's Call

Exact Audio Copy V1.1 from 23. June 2015

EAC extraction logfile from 20. January 2017, 13:47

Celtic Thunder / Legacy Volume 1

Used drive : HL-DT-STDVDRAM GU70N Adapter: 1 ID: 0

Read mode : Secure
Utilize accurate stream : Yes
Defeat audio cache : Yes
Make use of C2 pointers : No

Read offset correction : 48
Overread into Lead-In and Lead-Out : No
Fill up missing offset samples with silence : Yes
Delete leading and trailing silent blocks : No
Null samples used in CRC calculations : Yes
Used interface : Native Win32 interface for Win NT & 2000
Gap handling : Appended to previous track

Used output format : User Defined Encoder
Selected bitrate : 1024 kBit/s
Quality : High
Add ID3 tag : No
Command line compressor : C:\Program Files (x86)\Exact Audio Copy\Flac\flac.exe
Additional command line options : -8 -e -V -T "ARTIST=%artist%" -T "TITLE=%title%" -T "ALBUM=%albumtitle%" -T "DATE=%year%" -T "TRACKNUMBER=%tracknr%" -T "GENRE=%genre%" -T "PERFORMER=%albuminterpret%" -T "COMPOSER=%composer%" %haslyrics%–tag-from-file=LYRICS="%lyricsfile%"%haslyrics% -T "ALBUMARTIST=%albumartist%" -T "DISCNUMBER=%cdnumber%" -T "TOTALDISCS=%totalcds%" -T "TOTALTRACKS=%numtracks%" -T "COMMENT=%comment%" %source% -o %dest%


TOC of the extracted CD

Track | Start | Length | Start sector | End sector
––––––––––––––––––––––––––––-
1 | 0:00.00 | 6:20.10 | 0 | 28509
2 | 6:20.10 | 3:54.10 | 28510 | 46069
3 | 10:14.20 | 4:16.65 | 46070 | 65334
4 | 14:31.10 | 3:15.20 | 65335 | 79979
5 | 17:46.30 | 3:48.18 | 79980 | 97097
6 | 21:34.48 | 3:05.58 | 97098 | 111030
7 | 24:40.31 | 3:33.10 | 111031 | 127015
8 | 28:13.41 | 4:00.10 | 127016 | 145025
9 | 32:13.51 | 2:43.10 | 145026 | 157260
10 | 34:56.61 | 2:44.64 | 157261 | 169624
11 | 37:41.50 | 3:18.06 | 169625 | 184480
12 | 40:59.56 | 3:32.44 | 184481 | 200424
13 | 44:32.25 | 2:54.59 | 200425 | 213533
14 | 47:27.09 | 3:10.05 | 213534 | 227788


Track 1

Filename C:\EAC\Celtic Thunder - Legacy Volume 1 (2016) {Legacy Recordings 88875197242} [FLAC]\01 - Heartland.wav

Pre-gap length 0:00:02.00

Peak level 97.7 %
Extraction speed 1.3 X
Track quality 99.9 %
Test CRC 14717563
Copy CRC 14717563
Accurately ripped (confidence 3) [6BB28E0D] (AR v2)
Copy OK

Track 2

Filename C:\EAC\Celtic Thunder - Legacy Volume 1 (2016) {Legacy Recordings 88875197242} [FLAC]\02 - Falling Slowly.wav

Pre-gap length 0:00:01.00

Peak level 97.7 %
Extraction speed 1.5 X
Track quality 100.0 %
Test CRC 64D9BAE3
Copy CRC 64D9BAE3
Accurately ripped (confidence 3) [F4A7E770] (AR v2)
Copy OK

Track 3

Filename C:\EAC\Celtic Thunder - Legacy Volume 1 (2016) {Legacy Recordings 88875197242} [FLAC]\03 - The Dutchman.wav

Pre-gap length 0:00:01.00

Peak level 97.7 %
Extraction speed 1.6 X
Track quality 100.0 %
Test CRC 66AB7473
Copy CRC 66AB7473
Accurately ripped (confidence 3) [24F0C845] (AR v2)
Copy OK

Track 4

Filename C:\EAC\Celtic Thunder - Legacy Volume 1 (2016) {Legacy Recordings 88875197242} [FLAC]\04 - Black Velvet Band.wav

Pre-gap length 0:00:01.00

Peak level 97.7 %
Extraction speed 1.6 X
Track quality 100.0 %
Test CRC F6CE49A6
Copy CRC F6CE49A6
Accurately ripped (confidence 3) [642F0550] (AR v2)
Copy OK

Track 5

Filename C:\EAC\Celtic Thunder - Legacy Volume 1 (2016) {Legacy Recordings 88875197242} [FLAC]\05 - Caledonia.wav

Pre-gap length 0:00:01.00

Peak level 97.7 %
Extraction speed 1.7 X
Track quality 100.0 %
Test CRC 83D216FA
Copy CRC 83D216FA
Accurately ripped (confidence 3) [1F7BC032] (AR v2)
Copy OK

Track 6

Filename C:\EAC\Celtic Thunder - Legacy Volume 1 (2016) {Legacy Recordings 88875197242} [FLAC]\06 - Ride On.wav

Pre-gap length 0:00:01.00

Peak level 97.7 %
Extraction speed 1.8 X
Track quality 100.0 %
Test CRC AE3DB2B8
Copy CRC AE3DB2B8
Accurately ripped (confidence 3) [A8C3E09A] (AR v2)
Copy OK

Track 7

Filename C:\EAC\Celtic Thunder - Legacy Volume 1 (2016) {Legacy Recordings 88875197242} [FLAC]\07 - Buchaille on Eirne.wav

Pre-gap length 0:00:01.00

Peak level 97.7 %
Extraction speed 1.6 X
Track quality 99.9 %
Test CRC 19651708
Copy CRC 19651708
Accurately ripped (confidence 3) [4EEF18EF] (AR v2)
Copy OK

Track 8

Filename C:\EAC\Celtic Thunder - Legacy Volume 1 (2016) {Legacy Recordings 88875197242} [FLAC]\08 - Noreen.wav

Pre-gap length 0:00:01.00

Peak level 97.7 %
Extraction speed 2.0 X
Track quality 100.0 %
Test CRC FD44E415
Copy CRC FD44E415
Accurately ripped (confidence 3) [2636A201] (AR v2)
Copy OK

Track 9

Filename C:\EAC\Celtic Thunder - Legacy Volume 1 (2016) {Legacy Recordings 88875197242} [FLAC]\09 - The Galway Girl.wav

Pre-gap length 0:00:01.00

Peak level 97.7 %
Extraction speed 1.9 X
Track quality 100.0 %
Test CRC 800D633B
Copy CRC 800D633B
Accurately ripped (confidence 3) [58D2F17C] (AR v2)
Copy OK

Track 10

Filename C:\EAC\Celtic Thunder - Legacy Volume 1 (2016) {Legacy Recordings 88875197242} [FLAC]\10 - A Place in the Choir.wav

Pre-gap length 0:00:01.00

Peak level 97.7 %
Extraction speed 2.0 X
Track quality 100.0 %
Test CRC F1C6E0CD
Copy CRC F1C6E0CD
Accurately ripped (confidence 3) [258A38E9] (AR v2)
Copy OK

Track 11

Filename C:\EAC\Celtic Thunder - Legacy Volume 1 (2016) {Legacy Recordings 88875197242} [FLAC]\11 - Mountains of Mourne.wav

Pre-gap length 0:00:01.00

Peak level 97.7 %
Extraction speed 2.1 X
Track quality 100.0 %
Test CRC BF0ADBD6
Copy CRC BF0ADBD6
Accurately ripped (confidence 3) [9543CE32] (AR v2)
Copy OK

Track 12

Filename C:\EAC\Celtic Thunder - Legacy Volume 1 (2016) {Legacy Recordings 88875197242} [FLAC]\12 - Danny Boy.wav

Pre-gap length 0:00:01.00

Peak level 97.7 %
Extraction speed 2.2 X
Track quality 100.0 %
Test CRC B1A215DE
Copy CRC B1A215DE
Accurately ripped (confidence 3) [17946903] (AR v2)
Copy OK

Track 13

Filename C:\EAC\Celtic Thunder - Legacy Volume 1 (2016) {Legacy Recordings 88875197242} [FLAC]\13 - Cal Local Hero.wav

Pre-gap length 0:00:01.00

Peak level 97.7 %
Extraction speed 2.1 X
Track quality 100.0 %
Test CRC A57F40F2
Copy CRC A57F40F2
Accurately ripped (confidence 3) [2A06E0C2] (AR v2)
Copy OK

Track 14

Filename C:\EAC\Celtic Thunder - Legacy Volume 1 (2016) {Legacy Recordings 88875197242} [FLAC]\14 - Ireland's Call.wav

Pre-gap length 0:00:02.00

Peak level 97.7 %
Extraction speed 2.2 X
Track quality 100.0 %
Test CRC 021C8467
Copy CRC 021C8467
Accurately ripped (confidence 3) [358486AC] (AR v2)
Copy OK


All tracks accurately ripped

No errors occurred

End of status report

–– CUETools DB Plugin V2.1.6

[CTDB TOCID: tT.o6rz3K3EWio719w82Apb32iY-] database access error: The operation has timed out


==== Log checksum 74736069765E915BD82DD29C1E641DB53E11BB1CABC9A4FA818862996DAA9155 ====

All thanks go to the original releaser