Subcategories

Celtic Thunder - Legacy, Vol. 2 (2016)

Posted By: delpotro
Celtic Thunder - Legacy, Vol. 2 (2016)

Celtic Thunder - Legacy, Vol. 2 (2016)
EAC Rip | FLAC (tracks+log+.cue) | 00:46:50 | 319 Mb
Celtic, Folk | Label: Legacy Recordings

2016 release, the second installment of Celtic Thunder's live performance featuring many of the best-loved numbers from the group's nine standing-room-only world tours to-date. Also features Celtic Thunder reunited with guest artist Damian McGinty, an original member of Celtic Thunder who went on to win Fox's The Glee Project before landing a recurring role (as Rory Flanagan) in the hit series Glee.
Tracklist:
1. Now We Are Free (04:07)
2. Isle of Inisfree (03:51)
3. Home (03:40)
4. Song for Mira (03:29)
5. Hallelujah (03:04)
6. Remember Me (03:43)
7. Lauren & I (03:18)
8. Breaking up is Hard to Do (02:35)
9. Life with You (03:12)
10. Streets of New York (04:15)
11. Seven Drunken Nights (05:03)
12. Take Me Home (03:21)
13. Mo Ghile Mear (02:53)

Exact Audio Copy V1.3 from 2. September 2016

EAC extraction logfile from 20. January 2017, 5:59

Celtic Thunder / Legacy Vol. 2

Used drive : ATAPI DVD A DH16AAL Adapter: 1 ID: 0

Read mode : Secure
Utilize accurate stream : Yes
Defeat audio cache : Yes
Make use of C2 pointers : No

Read offset correction : 6
Overread into Lead-In and Lead-Out : No
Fill up missing offset samples with silence : Yes
Delete leading and trailing silent blocks : No
Null samples used in CRC calculations : Yes
Used interface : Native Win32 interface for Win NT & 2000
Gap handling : Appended to previous track

Used output format : User Defined Encoder
Selected bitrate : 1024 kBit/s
Quality : High
Add ID3 tag : No
Command line compressor : C:\Program Files (x86)\Exact Audio Copy\Flac\flac.exe
Additional command line options : -8 -e -p -V -T "ARTIST=%artist%" -T "TITLE=%title%" -T "ALBUM=%albumtitle%" -T "DATE=%year%" -T "TRACKNUMBER=%tracknr%" -T "GENRE=%genre%" -T "PERFORMER=%albuminterpret%" -T "COMPOSER=%composer%" %haslyrics%–tag-from-file=LYRICS="%lyricsfile%"%haslyrics% -T "ALBUMARTIST=%albumartist%" -T "DISCNUMBER=%cdnumber%" -T "TOTALDISCS=%totalcds%" -T "TOTALTRACKS=%numtracks%" -T "COMMENT=%comment%" %source% -o %dest%


TOC of the extracted CD

Track | Start | Length | Start sector | End sector
––––––––––––––––––––––––––––-
1 | 0:00.00 | 4:08.33 | 0 | 18632
2 | 4:08.33 | 3:52.03 | 18633 | 36035
3 | 8:00.36 | 3:41.07 | 36036 | 52617
4 | 11:41.43 | 3:30.40 | 52618 | 68407
5 | 15:12.08 | 3:05.65 | 68408 | 82347
6 | 18:17.73 | 3:44.01 | 82348 | 99148
7 | 22:01.74 | 3:20.53 | 99149 | 114201
8 | 25:22.52 | 2:36.61 | 114202 | 125962
9 | 27:59.38 | 3:13.16 | 125963 | 140453
10 | 31:12.54 | 4:16.28 | 140454 | 159681
11 | 35:29.07 | 5:04.52 | 159682 | 182533
12 | 40:33.59 | 3:23.03 | 182534 | 197761
13 | 43:56.62 | 2:53.71 | 197762 | 210807


Track 1

Filename C:\EAC RIPS\Celtic Thunder - Legacy Vol. 2 (2016) [FLAC] {88875197272}\01 - Now We Are Free.wav

Pre-gap length 0:00:02.00

Peak level 97.7 %
Extraction speed 2.0 X
Track quality 100.0 %
Test CRC 79F2D4F2
Copy CRC 79F2D4F2
Accurately ripped (confidence 1) [4EE76899] (AR v2)
Copy OK

Track 2

Filename C:\EAC RIPS\Celtic Thunder - Legacy Vol. 2 (2016) [FLAC] {88875197272}\02 - Isle of Inisfree.wav

Pre-gap length 0:00:01.00

Peak level 97.7 %
Extraction speed 1.6 X
Track quality 99.9 %
Test CRC 4C561F48
Copy CRC 4C561F48
Accurately ripped (confidence 1) [CF18FE4B] (AR v2)
Copy OK

Track 3

Filename C:\EAC RIPS\Celtic Thunder - Legacy Vol. 2 (2016) [FLAC] {88875197272}\03 - Home.wav

Pre-gap length 0:00:01.00

Peak level 97.7 %
Extraction speed 1.7 X
Track quality 99.9 %
Test CRC C45942A5
Copy CRC C45942A5
Accurately ripped (confidence 1) [1D797BFF] (AR v2)
Copy OK

Track 4

Filename C:\EAC RIPS\Celtic Thunder - Legacy Vol. 2 (2016) [FLAC] {88875197272}\04 - Song for Mira.wav

Pre-gap length 0:00:01.00

Peak level 97.7 %
Extraction speed 2.5 X
Track quality 100.0 %
Test CRC EC2E4BCC
Copy CRC EC2E4BCC
Accurately ripped (confidence 1) [3EAEFF12] (AR v2)
Copy OK

Track 5

Filename C:\EAC RIPS\Celtic Thunder - Legacy Vol. 2 (2016) [FLAC] {88875197272}\05 - Hallelujah.wav

Pre-gap length 0:00:01.00

Peak level 97.7 %
Extraction speed 2.6 X
Track quality 100.0 %
Test CRC 322AEA05
Copy CRC 322AEA05
Accurately ripped (confidence 1) [7669A968] (AR v2)
Copy OK

Track 6

Filename C:\EAC RIPS\Celtic Thunder - Legacy Vol. 2 (2016) [FLAC] {88875197272}\06 - Remember Me.wav

Pre-gap length 0:00:01.00

Peak level 97.7 %
Extraction speed 2.8 X
Track quality 100.0 %
Test CRC 25198A9F
Copy CRC 25198A9F
Accurately ripped (confidence 1) [89F11B43] (AR v2)
Copy OK

Track 7

Filename C:\EAC RIPS\Celtic Thunder - Legacy Vol. 2 (2016) [FLAC] {88875197272}\07 - Lauren & I.wav

Pre-gap length 0:00:01.00

Peak level 97.7 %
Extraction speed 2.8 X
Track quality 100.0 %
Test CRC F2233737
Copy CRC F2233737
Accurately ripped (confidence 1) [F7567B3F] (AR v2)
Copy OK

Track 8

Filename C:\EAC RIPS\Celtic Thunder - Legacy Vol. 2 (2016) [FLAC] {88875197272}\08 - Breaking Up is Hard to Do.wav

Pre-gap length 0:00:02.00

Peak level 97.7 %
Extraction speed 2.8 X
Track quality 100.0 %
Test CRC 0A553FF1
Copy CRC 0A553FF1
Accurately ripped (confidence 1) [61FDA1BD] (AR v2)
Copy OK

Track 9

Filename C:\EAC RIPS\Celtic Thunder - Legacy Vol. 2 (2016) [FLAC] {88875197272}\09 - Life with You.wav

Pre-gap length 0:00:01.00

Peak level 97.7 %
Extraction speed 2.1 X
Track quality 99.9 %
Test CRC 5F317A7E
Copy CRC 5F317A7E
Accurately ripped (confidence 1) [3547251E] (AR v2)
Copy OK

Track 10

Filename C:\EAC RIPS\Celtic Thunder - Legacy Vol. 2 (2016) [FLAC] {88875197272}\10 - Streets of New York.wav

Pre-gap length 0:00:01.00

Peak level 97.7 %
Extraction speed 3.3 X
Track quality 100.0 %
Test CRC D0210721
Copy CRC D0210721
Accurately ripped (confidence 1) [0A13E08C] (AR v2)
Copy OK

Track 11

Filename C:\EAC RIPS\Celtic Thunder - Legacy Vol. 2 (2016) [FLAC] {88875197272}\11 - Seven Drunken Nights.wav

Pre-gap length 0:00:01.00

Peak level 97.7 %
Extraction speed 3.5 X
Track quality 100.0 %
Test CRC A4BC81FB
Copy CRC A4BC81FB
Accurately ripped (confidence 1) [805A3A8B] (AR v2)
Copy OK

Track 12

Filename C:\EAC RIPS\Celtic Thunder - Legacy Vol. 2 (2016) [FLAC] {88875197272}\12 - Take Me Home.wav

Pre-gap length 0:00:01.00

Peak level 98.8 %
Extraction speed 3.4 X
Track quality 100.0 %
Test CRC 7E8964B3
Copy CRC 7E8964B3
Accurately ripped (confidence 1) [4DBFEE04] (AR v2)
Copy OK

Track 13

Filename C:\EAC RIPS\Celtic Thunder - Legacy Vol. 2 (2016) [FLAC] {88875197272}\13 - Mo Ghile Mear.wav

Pre-gap length 0:00:02.00

Peak level 97.7 %
Extraction speed 2.3 X
Track quality 99.9 %
Test CRC 723FA09B
Copy CRC 723FA09B
Accurately ripped (confidence 1) [B490532B] (AR v2)
Copy OK


All tracks accurately ripped

No errors occurred

End of status report

–– CUETools DB Plugin V2.1.6

[CTDB TOCID: apU28mptCo7Cwcr98_AHFJW.qtU-] found
Submit result: apU28mptCo7Cwcr98_AHFJW.qtU- has been confirmed
Track | CTDB Status
1 | (6/6) Accurately ripped
2 | (6/6) Accurately ripped
3 | (6/6) Accurately ripped
4 | (6/6) Accurately ripped
5 | (6/6) Accurately ripped
6 | (6/6) Accurately ripped
7 | (6/6) Accurately ripped
8 | (6/6) Accurately ripped
9 | (6/6) Accurately ripped
10 | (6/6) Accurately ripped
11 | (6/6) Accurately ripped
12 | (6/6) Accurately ripped
13 | (6/6) Accurately ripped


==== Log checksum 0A12AFDF4FA638CCFC6B7173BB3FB5ECD65EBA3AA7CED654A17A98543C61BBB5 ====

All thanks go to the original releaser