Subcategories

Charles Aznavour - Sings In English: Greatest Hits (2014)

Posted By: SuniR
Charles Aznavour - Sings In English: Greatest Hits (2014)

Charles Aznavour - Sings In English: Greatest Hits (2014)
EAC | FLAC (log,image+cue) -> 516 Mb (5% Rec.) | Mp3 CBR320 Kbps -> 187 Mb (5% Rec.) | Scans -> 32 Mb
Vocal Pop, Chanson, Ballad | Label: Universal Music/Barclay, #4605026715523 | 2014 | 01:19:42

2014 Greatest Hits sung in English from the French icon, who has been releasing music since 1933. Features performances from Elton John, Frank Sinatra, Liza Minnelli, Sting, Josh Groban, Celine Dion and others. Includes classics like 'She', 'Yesterday When I Was Young', 'You've Let Yourself Go' and more. Since his career began in 1933 Charles Aznavour has sold over 100 million record sales, 1,200 songs, 80 movies, 294 albums, thousands of concerts around the world. He performs and has recorded in seven languages, and as he celebrates his 90th birthday, is the longest standing 'A-List' star in the world, considered to be one of the greatest singer/songwriters of all time with CNN and readers of Time magazine chosing Aznavour as the entertainer of the 20th century, ahead of Elvis Presley and Bob Dylan.

Tracklist:

01. She [02:33]
02. The Old Fashioned Way [03:08]
03. Yesterday When I Was Young (with Elton John) [03:26]
04. You And Me (with Celine Dion) [03:34]
05. And I In My Chair [03:34]
06. La Boheme (with Josh Groban) [03:28]
07. You've Let Yourself Go [03:41]
08. It Will Be My Day [04:22]
09. You've Got To Learn [03:30]
10. Love Is New Everyday (with Sting) [04:08]
11. No, I Could Never Forget [06:31]
12. Happy Anniversary [05:54]
13. I Didn't See The Time Go By [03:29]
14. Take Me Along [03:19]
15. There Is A Time [02:37]
16. What Makes A Man [04:55]
17. They Fell [04:09]
18. Ave Maria [04:57]
19. Quiet Love (with Liza Minnelli) [05:25]
20. Young At Heart (with Frank Sinatra) [02:53]

Exact Audio Copy V1.0 beta 3 from 29. August 2011

EAC extraction logfile from 27. November 2014, 8:51

Charles Aznavour / Sings In English {Greatest Hits}

Used drive : ATAPI iHAS124 D Adapter: 0 ID: 2

Read mode : Secure
Utilize accurate stream : Yes
Defeat audio cache : Yes
Make use of C2 pointers : No

Read offset correction : 6
Overread into Lead-In and Lead-Out : No
Fill up missing offset samples with silence : Yes
Delete leading and trailing silent blocks : No
Null samples used in CRC calculations : Yes
Used interface : Installed external ASPI interface

Used output format : User Defined Encoder
Selected bitrate : 1024 kBit/s
Quality : High
Add ID3 tag : No
Command line compressor : C:\Program Files (x86)\Exact Audio Copy\Flac\flac.exe
Additional command line options : -6 -V -T "ARTIST=%artist%" -T "TITLE=%title%" -T "ALBUM=%albumtitle%" -T "DATE=%year%" -T "TRACKNUMBER=%tracknr%" -T "GENRE=%genre%" -T "COMMENT=%comment%" -T "BAND=%albuminterpret%" -T "COMPOSER=%composer%" %haslyrics%–tag-from-file=LYRICS="%lyricsfile%"%haslyrics% -T "DISCNUMBER=%cdnumber%" -T "TOTALDISCS=%totalcds%" -T "TOTALTRACKS=%numtracks%" %hascover%–picture="%coverfile%"%hascover% %source% -o %dest%


TOC of the extracted CD

Track | Start | Length | Start sector | End sector
––––––––––––––––––––––––––––-
1 | 0:00.00 | 2:33.25 | 0 | 11499
2 | 2:33.25 | 3:08.33 | 11500 | 25632
3 | 5:41.58 | 3:26.06 | 25633 | 41088
4 | 9:07.64 | 3:34.29 | 41089 | 57167
5 | 12:42.18 | 3:34.58 | 57168 | 73275
6 | 16:17.01 | 3:28.42 | 73276 | 88917
7 | 19:45.43 | 3:41.28 | 88918 | 105520
8 | 23:26.71 | 4:22.43 | 105521 | 125213
9 | 27:49.39 | 3:30.35 | 125214 | 140998
10 | 31:19.74 | 4:08.57 | 140999 | 159655
11 | 35:28.56 | 6:31.24 | 159656 | 189004
12 | 42:00.05 | 5:54.12 | 189005 | 215566
13 | 47:54.17 | 3:29.24 | 215567 | 231265
14 | 51:23.41 | 3:19.04 | 231266 | 246194
15 | 54:42.45 | 2:37.58 | 246195 | 258027
16 | 57:20.28 | 4:55.21 | 258028 | 280173
17 | 62:15.49 | 4:09.67 | 280174 | 298915
18 | 66:25.41 | 4:57.53 | 298916 | 321243
19 | 71:23.19 | 5:25.49 | 321244 | 345667
20 | 76:48.68 | 2:53.30 | 345668 | 358672


Range status and errors

Selected range

Filename C:\mm\Charles Aznavour\2014 - Sings In English {Greatest Hits}[4605026715523]\Charles Aznavour - Sings In English {Greatest Hits}.wav

Peak level 99.8 %
Extraction speed 3.9 X
Range quality 100.0 %
Test CRC 832993CB
Copy CRC 832993CB
Copy OK

No errors occurred


AccurateRip summary

Track 1 not present in database
Track 2 not present in database
Track 3 not present in database
Track 4 not present in database
Track 5 not present in database
Track 6 not present in database
Track 7 not present in database
Track 8 not present in database
Track 9 not present in database
Track 10 not present in database
Track 11 not present in database
Track 12 not present in database
Track 13 not present in database
Track 14 not present in database
Track 15 not present in database
Track 16 not present in database
Track 17 not present in database
Track 18 not present in database
Track 19 not present in database
Track 20 not present in database

None of the tracks are present in the AccurateRip database

End of status report

Thanks to the original releaser