Subcategories

Charles Mingus - Revenge! The Legendary Paris Concerts (2CD) (1996)

Posted By: Domestos
Charles Mingus - Revenge! The Legendary Paris Concerts (2CD) (1996)

Charles Mingus - Revenge! The Legendary Paris Concerts (2CD) (1996)
EAC Rip | FLAC (tracks+.cue, log) ~ 316.92 Mb (CD1) + 362.26 Mb (CD2) | 02:05:06 | Scans included
Bebop, Post-Bop, Avant-Garde Jazz | Country: US | Label: Revenge! Records (32002)

Of all of bassist Charles Mingus' bands, one of the most exciting was the sextet that he took to Europe in 1964. Consisting of the unique Eric Dolphy (on alto, bass clarinet and flute), tenor saxophonist Clifford Jordan, pianist Jaki Byard, drummer Dannie Richmond and trumpeter Johnny Coles, this band really stretched the limits of bebop. Mingus (greatly assisted by Richmond) constantly changed rhythms when the music became too comfortable and was always pushing his sidemen to play above their capabilities.

Revenge, a two-CD set from the tour, was the first release on Sue Mingus' label. She organized her company so as to combat the many bootleggers who illegally put out music by her late husband without paying anyone. The Revenge twofer has (despite saying that it is from April 18) the complete Paris concert of April 17. Coles, who unfortunately is not listed in the personnel, just appeares on "So Long Eric" (the same version previously out on Fantasy's The Great Concert of Charles Mingus) before becoming ill; otherwise this is a brilliant quintet date of previously unavailable music. While the versions of "Peggy's Blue Skylight" and "Orange Was the Color of Her Dress" have their moments, the band really digs in during the lengthy explorations of "Meditations on Integration," "Parkeriana" (a tribute to Charlie Parker that is quite a bit different than the Fantasy version) and a definitive and very exciting "Fables of Faubus." Eric Dolphy (particularly on alto) was at the peak of his powers during the tour (he died just a couple months later), Clifford Jordan (whose tone was quite distinctive) manages to keep up and Jaki Byard's versatility (going from bop and free to Duke Ellington and stride) is a major asset to the colorful music. A highly recommended release. ~ AllMusic Review by Scott Yanow

Charles Mingus – bass
Johnny Coles – trumpet (disc 2, track 1)
Eric Dolphy – alto saxophone, bass clarinet, flute
Clifford Jordan – tenor saxophone
Jaki Byard – piano
Dannie Richmond – drums

Track List CD1 (01:12:03):
1. Peggy's Blue Skylight (12:53)
2. Orange Was The Color Of Her Dress Then Blue Silk (11:38)
3. Meditations On Integration (22:39)
4. Fables Of Faubus (24:53)

Track List CD2 (53:03):
1. So Long Eric (28:50)
2. Parkeriana (24:13)

Charles Mingus - Revenge! The Legendary Paris Concerts (2CD) (1996)

Exact Audio Copy V1.3 from 2. September 2016

EAC extraction logfile from 7. July 2017, 11:38

Charles Mingus / Revenge!

Used drive : PLDS DVD+-RW DU-8A3S Adapter: 1 ID: 0

Read mode : Secure
Utilize accurate stream : Yes
Defeat audio cache : Yes
Make use of C2 pointers : No

Read offset correction : 6
Overread into Lead-In and Lead-Out : No
Fill up missing offset samples with silence : Yes
Delete leading and trailing silent blocks : No
Null samples used in CRC calculations : Yes
Used interface : Native Win32 interface for Win NT & 2000
Gap handling : Appended to previous track

Used output format : User Defined Encoder
Selected bitrate : 1024 kBit/s
Quality : High
Add ID3 tag : No
Command line compressor : C:\users\Public\flac-1.3.2-win\win32\flac.exe
Additional command line options : -8 -V -T "ARTIST=%artist%" -T "TITLE=%title%" -T "ALBUM=%albumtitle%" -T "DATE=%year%" -T "TRACKNUMBER=%tracknr%" -T "GENRE=%genre%" -T "PERFORMER=%albuminterpret%" -T "COMPOSER=%composer%" %haslyrics%–tag-from-file=LYRICS="%lyricsfile%"%haslyrics% -T "ALBUMARTIST=%albumartist%" -T "DISCNUMBER=%cdnumber%" -T "TOTALDISCS=%totalcds%" -T "TOTALTRACKS=%numtracks%" -T "COMMENT=%comment%" %source% -o %dest%

TOC of the extracted CD

Track | Start | Length | Start sector | End sector
––––––––––––––––––––––––––––-
1 | 0:00.00 | 12:53.22 | 0 | 57996
2 | 12:53.22 | 11:38.30 | 57997 | 110376
3 | 24:31.52 | 22:39.28 | 110377 | 212329
4 | 47:11.05 | 24:53.25 | 212330 | 324329

Track 1

Filename C:\Charles Mingus - Revenge! The Legendary Paris Concerts (1996, rec 1964) {Revenge! Records 32002} [CDFLAC]\CD1\01 Peggy's Blue Skylight.wav

Pre-gap length 0:00:02.00

Peak level 85.2 %
Extraction speed 1.5 X
Track quality 100.0 %
Test CRC 4D884171
Copy CRC 4D884171
Accurately ripped (confidence 4) [BEA8C31A] (AR v2)
Copy OK

Track 2

Filename C:\Charles Mingus - Revenge! The Legendary Paris Concerts (1996, rec 1964) {Revenge! Records 32002} [CDFLAC]\CD1\02 Orange Was The Color Of Her Dress Then Blue Silk.wav

Pre-gap length 0:00:06.42

Peak level 71.3 %
Extraction speed 1.8 X
Track quality 100.0 %
Test CRC 63B41983
Copy CRC 63B41983
Accurately ripped (confidence 4) [155003BA] (AR v2)
Copy OK

Track 3

Filename C:\Charles Mingus - Revenge! The Legendary Paris Concerts (1996, rec 1964) {Revenge! Records 32002} [CDFLAC]\CD1\03 Meditations On Integration.wav

Pre-gap length 0:00:01.20

Peak level 94.1 %
Extraction speed 2.2 X
Track quality 100.0 %
Test CRC D18333CD
Copy CRC D18333CD
Accurately ripped (confidence 4) [2A8D1341] (AR v2)
Copy OK

Track 4

Filename C:\Charles Mingus - Revenge! The Legendary Paris Concerts (1996, rec 1964) {Revenge! Records 32002} [CDFLAC]\CD1\04 Fables Of Faubus.wav

Pre-gap length 0:00:06.44

Peak level 83.5 %
Extraction speed 2.6 X
Track quality 99.9 %
Test CRC 5CA2AAD3
Copy CRC 5CA2AAD3
Accurately ripped (confidence 3) [54EBF189] (AR v2)
Copy OK

All tracks accurately ripped

No errors occurred

End of status report

==== Log checksum C1373079A299A942949E0A612D61D12C1EE685A1329BB698F778E93213DA3D09 ====

Exact Audio Copy V1.3 from 2. September 2016

EAC extraction logfile from 7. July 2017, 10:16

Charles Mingus / Revenge!

Used drive : PLDS DVD+-RW DU-8A3S Adapter: 1 ID: 0

Read mode : Secure
Utilize accurate stream : Yes
Defeat audio cache : Yes
Make use of C2 pointers : No

Read offset correction : 6
Overread into Lead-In and Lead-Out : No
Fill up missing offset samples with silence : Yes
Delete leading and trailing silent blocks : No
Null samples used in CRC calculations : Yes
Used interface : Native Win32 interface for Win NT & 2000
Gap handling : Appended to previous track

Used output format : User Defined Encoder
Selected bitrate : 1024 kBit/s
Quality : High
Add ID3 tag : No
Command line compressor : C:\users\Public\flac-1.3.2-win\win32\flac.exe
Additional command line options : -8 -V -T "ARTIST=%artist%" -T "TITLE=%title%" -T "ALBUM=%albumtitle%" -T "DATE=%year%" -T "TRACKNUMBER=%tracknr%" -T "GENRE=%genre%" -T "PERFORMER=%albuminterpret%" -T "COMPOSER=%composer%" %haslyrics%–tag-from-file=LYRICS="%lyricsfile%"%haslyrics% -T "ALBUMARTIST=%albumartist%" -T "DISCNUMBER=%cdnumber%" -T "TOTALDISCS=%totalcds%" -T "TOTALTRACKS=%numtracks%" -T "COMMENT=%comment%" %source% -o %dest%

TOC of the extracted CD

Track | Start | Length | Start sector | End sector
––––––––––––––––––––––––––––-
1 | 0:00.00 | 28:50.20 | 0 | 129769
2 | 28:50.20 | 24:13.67 | 129770 | 238811

Track 1

Filename C:\Charles Mingus - Revenge! The Legendary Paris Concerts (1996, rec 1964) {Revenge! Records 32002} [CDFLAC]\CD2\01 So Long Eric.wav

Pre-gap length 0:00:02.00

Peak level 93.3 %
Extraction speed 1.5 X
Track quality 100.0 %
Test CRC 89FFB6ED
Copy CRC 89FFB6ED
Accurately ripped (confidence 3) [0D94756A] (AR v2)
Copy OK

Track 2

Filename C:\Charles Mingus - Revenge! The Legendary Paris Concerts (1996, rec 1964) {Revenge! Records 32002} [CDFLAC]\CD2\02 Parkeriana.wav

Peak level 95.5 %
Extraction speed 1.9 X
Track quality 99.9 %
Test CRC D4907450
Copy CRC D4907450
Accurately ripped (confidence 4) [8F39522F] (AR v2)
Copy OK

All tracks accurately ripped

No errors occurred

End of status report

==== Log checksum 507817C4A757081931E0170AB1167BC7BEE6B456E115691BB4123BE2C93A1CD2 ====

All thanks go to the subix

More Music in My Blog
Follow My RSS Channel