Subcategories

Charles Mingus - In A Soulful Mood (1960) {Music Club-Candid MCI 50004 rel 1996}

Posted By: ruskaval
Charles Mingus - In A Soulful Mood (1960) {Music Club-Candid MCI 50004 rel 1996}

Charles Mingus - In A Soulful Mood (1960) {Music Club-Candid MCI 50004 rel 1996}
EAC rip (secure mode) | FLAC (tracks)+CUE+LOG -> 407 Mb | MP3 @320 -> 165 Mb
Full Artwork @ 300 dpi (jpg) -> 14 Mb | 5% repair rar
© 1960, 1996 Music Club / Candid | MCI 50004
Jazz / Post Bop / Bass

Very nice set of Mingus' legendary Candid recordings – produced in 1960, after Mingus angrily departed Columbia records, and was finally given the freedom to work in the way that he wanted. The recordings are some of Mingus best – and they feature a righteous anger and sheer jazz power that's unmatched by few other recordings.
Originally released on the Candid label, it's strange to think that this album isn't more well known to jazz fans, considering some of the big names that appear and some of the inspired soloing they unleash. Dannie Richmond, Mingus' quintessential drummer is the only one who appears on all tracks, along with Mingus, but appearing on and off are more than capable sidemen such as Booker Ervin, Charles MacPehrson, Jo Jones and Tommy Flanagan, but it's the last five tracks that are truly amazing. Mingus manages to bridge two schools of jazz, swing and avant-garde, like the bridge never existed, bringing together colossal swing trumpeter Roy Eldridge and free jazz prodigy Eric Dolphy. The highlight of the album is a lengthy rendition of 'Body and Soul', which features some truly awe-inspiring solos by Eldridge, Dolphy, and trombonist Jimmy Knepper, and the everpresent and always fiery boom of Mingus' bass, keeping superb time and swinging like crazy while letting rip some of his notorious vocal exclamations to push the music along. The rest of the disc rarely matches that energy, but this is still essential music for any Mingus fan.
Charles Mingus - In A Soulful Mood (1960) {Music Club-Candid MCI 50004 rel 1996}


Personnel:
Charles Mingus (bass)
Lonnie Hillyer (trumpet 1-3)
Ted Curson (trumpet 2-4)
Roy Eldridge (trumpet 5-8)
Jimmy Knepper (trombone 6-8)
Booker Ervin (tenor saxophone 1-3)
Charles McPherson (alto saxophone 1-3)
Eric Dolphy (alto saxophone 4, 6-8; bass clarinet 2, 3)
Paul Bley (piano 1, 2)
Nico Bunick (piano 3)
Tommy Flanagan (piano 5-8)
Dannie Richmond (drums 1-4)
Jo Jones (drums 5-8)

Tracks 1, 5-8 recorded at Cliff Walk Manor Hotel, Newport, Rhode Island, November 11th, 1960.
Tracks 2-4 recorded at Cliff Walk Manor Hotel, Newport, Rhode Island, October 20th, 1960.


tracklist:
01 - Bugs
02 - Reincarnation Of A Love Bird
03 - Vassarlean
04 - Stormy Weather
05 - Wrap Your Trouble In Dreams
06 - Body & Soul
07 - Mysterious Blues
08 - R & R

Exact Audio Copy V1.1 from 23. June 2015

EAC extraction logfile from 6. April 2017, 22:22

Charles Mingus / In A Soulful Mood

Used drive : TSSTcorpCDDVDW SE-208DB Adapter: 1 ID: 2

Read mode : Secure
Utilize accurate stream : Yes
Defeat audio cache : Yes
Make use of C2 pointers : No

Read offset correction : 6
Overread into Lead-In and Lead-Out : No
Fill up missing offset samples with silence : Yes
Delete leading and trailing silent blocks : No
Null samples used in CRC calculations : Yes
Used interface : Native Win32 interface for Win NT & 2000
Gap handling : Appended to previous track

Used output format : User Defined Encoder
Selected bitrate : 1024 kBit/s
Quality : High
Add ID3 tag : No
Command line compressor : C:\Program Files (x86)\FLAC Frontend\tools\flac.exe
Additional command line options : -8 -V -T "ARTIST=%artist%" -T "TITLE=%title%" -T "ALBUM=%albumtitle%" -T "DATE=%year%" -T "TRACKNUMBER=%tracknr%" -T "TOTALTRACKS=%numtracks%" -T "GENRE=%genre%" -T "ALBUMARTIST=%albumartist%" -T "ALBUM ARTIST=%albumartist%" -T "COMMENT=EAC Secure Mode, Test & Copy, AccurateRip, FLAC -8" %source%


TOC of the extracted CD

Track | Start | Length | Start sector | End sector
––––––––––––––––––––––––––––-
1 | 0:00.00 | 8:29.37 | 0 | 38211
2 | 8:29.37 | 6:59.17 | 38212 | 69653
3 | 15:28.54 | 6:39.03 | 69654 | 99581
4 | 22:07.57 | 13:24.71 | 99582 | 159952
5 | 35:32.53 | 3:54.58 | 159953 | 177560
6 | 39:27.36 | 10:46.56 | 177561 | 226066
7 | 50:14.17 | 8:39.69 | 226067 | 265060
8 | 58:54.11 | 11:51.70 | 265061 | 318455


Track 1

Filename D:\_EAC\Charles Mingus - In A Soulful Mood (1996) [FLAC] {MCI 50004 rec 1960}\01 - Bugs.wav

Pre-gap length 0:00:02.00

Peak level 96.9 %
Extraction speed 3.2 X
Track quality 100.0 %
Test CRC 5878AAFC
Copy CRC 5878AAFC
Track not present in AccurateRip database
Copy OK

Track 2

Filename D:\_EAC\Charles Mingus - In A Soulful Mood (1996) [FLAC] {MCI 50004 rec 1960}\02 - Reincarnation Of A Love Bird.wav

Peak level 97.0 %
Extraction speed 3.8 X
Track quality 100.0 %
Test CRC 64075F4F
Copy CRC 64075F4F
Track not present in AccurateRip database
Copy OK

Track 3

Filename D:\_EAC\Charles Mingus - In A Soulful Mood (1996) [FLAC] {MCI 50004 rec 1960}\03 - Vassarlean.wav

Peak level 97.3 %
Extraction speed 3.6 X
Track quality 99.9 %
Test CRC 64A19D6B
Copy CRC 64A19D6B
Track not present in AccurateRip database
Copy OK

Track 4

Filename D:\_EAC\Charles Mingus - In A Soulful Mood (1996) [FLAC] {MCI 50004 rec 1960}\04 - Stormy Weather.wav

Peak level 97.0 %
Extraction speed 4.8 X
Track quality 100.0 %
Test CRC BB50DFDA
Copy CRC BB50DFDA
Track not present in AccurateRip database
Copy OK

Track 5

Filename D:\_EAC\Charles Mingus - In A Soulful Mood (1996) [FLAC] {MCI 50004 rec 1960}\05 - Wrap Your Trouble In Dreams.wav

Peak level 97.3 %
Extraction speed 4.7 X
Track quality 100.0 %
Test CRC 71FCA77F
Copy CRC 71FCA77F
Track not present in AccurateRip database
Copy OK

Track 6

Filename D:\_EAC\Charles Mingus - In A Soulful Mood (1996) [FLAC] {MCI 50004 rec 1960}\06 - Body & Soul.wav

Peak level 97.5 %
Extraction speed 5.0 X
Track quality 99.9 %
Test CRC D67E0730
Copy CRC D67E0730
Track not present in AccurateRip database
Copy OK

Track 7

Filename D:\_EAC\Charles Mingus - In A Soulful Mood (1996) [FLAC] {MCI 50004 rec 1960}\07 - Mysterious Blues.wav

Peak level 97.4 %
Extraction speed 5.1 X
Track quality 99.9 %
Test CRC CA920459
Copy CRC CA920459
Track not present in AccurateRip database
Copy OK

Track 8

Filename D:\_EAC\Charles Mingus - In A Soulful Mood (1996) [FLAC] {MCI 50004 rec 1960}\08 - R & R.wav

Peak level 97.3 %
Extraction speed 6.3 X
Track quality 100.0 %
Test CRC 88185E43
Copy CRC 88185E43
Track not present in AccurateRip database
Copy OK


None of the tracks are present in the AccurateRip database

No errors occurred

End of status report

==== Log checksum A486B62E0E78BF03C2DD8CDACAA9562B050433085064870EB228E55417DBEB6C ====


Charles Mingus - In A Soulful Mood (1960) {Music Club-Candid MCI 50004 rel 1996}

Charles Mingus - In A Soulful Mood (1960) {Music Club-Candid MCI 50004 rel 1996}



===