Subcategories

Charles Mingus - Tijuana Moods. The Complete Edition (1957) [2CD] {2000 BMG 24-bit Remaster}

Posted By: ruskaval
Charles Mingus - Tijuana Moods. The Complete Edition (1957) [2CD] {2000 BMG 24-bit Remaster}

Charles Mingus - Tijuana Moods. The Complete Edition (1957) [2CD] {2000 BMG 24-bit Remaster}
EAC rip (secure mode) | FLAC+CUE+LOG -> 587 Mb | MP3 @320 -> 227 Mb
Full Artwork @ 300 dpi (jpg) -> 19 Mb
© 2000 BMG France / RCA Victor | 74321749992 | 24-bit Remaster
Jazz / Hard Bop / Post Bop


Charles Mingus - Tijuana Moods. The Complete Edition (1957) [2CD] {2000 BMG 24-bit Remaster}

Recorded in New York in 1957 (though not released until 1962), Tijuana Moods was, according to Mingus himself, "the best album I ever made." The music is a vigorous stew of Mexican rhythms and sophisticated post-Ellington arrangements, further invigorated by the soloing of trumpeter Clarence Shaw, trombonist Jimmy Knepper, and, particularly, saxophonist Shafi Hadi. Mingus's vision of Tijuana was clearly sensual, the music evoking strippers, frenetic street scenes, and heart-broken lovers. Making use of suitelike thematic material and various forms of counterpoint, the group sounds much larger than it is, and points toward Mingus's later experiments with form.

The bristling sound and spirit of the music, however, are its primary attractions–a remarkable place where Mexican fantasy and hard bop meet. The second disc consists of outtakes and a long-lost remnant of the original recording session, "A Colloquial Dream," a poem about jazz narrated by Lonnie Elder and set to programmatic music by Mingus. It's a worthy addition to his legacy, but Tijuana Moods is the highlight here.
Recorded July 18 (Dizzy Moods, Ysabel's Table Dance, Los Mariachis) and August 6, 1957 in RCA Victor's Studio "A", New York City.
Digitally remastered from original master tapes in 24-bit by Jean-Perre Chalbos (La Source Mastering, Paris, France).
tracklist:
CD1
01. Dizzy Moods
02. Ysabel's Table Dance
03. Tijuana Gift Shop
04. Los Mariachis (The Street Musicians)
05. Flamingo
06. A Colloquial Dream (Scenes in the City)

CD2
01. Dizzy Moods (Alternate Take)
02. Ysabel's Table Dance (Alternate Take)
03. Tijuana Gift Shop (Alternate Take)
04. Los Mariachis (Alternate Take)
05. Flamingo (Alternate Take)
06. A Colloquial Dream (Alternate Take)

Charles Mingus - Tijuana Moods. The Complete Edition (1957) [2CD] {2000 BMG 24-bit Remaster}

Charles Mingus - Tijuana Moods. The Complete Edition (1957) [2CD] {2000 BMG 24-bit Remaster}

Exact Audio Copy V0.99 prebeta 5 from 4. May 2009

EAC extraction logfile from 29. October 2010, 21:37

Charles Mingus / Tijuana Moods (CD1)

Used drive : TSSTcorpCD/DVDW TS-H552L Adapter: 3 ID: 0

Read mode : Secure
Utilize accurate stream : Yes
Defeat audio cache : Yes
Make use of C2 pointers : No

Read offset correction : 6
Overread into Lead-In and Lead-Out : No
Fill up missing offset samples with silence : Yes
Delete leading and trailing silent blocks : No
Null samples used in CRC calculations : Yes
Used interface : Native Win32 interface for Win NT & 2000
Gap handling : Appended to previous track

Used output format : User Defined Encoder
Selected bitrate : 1024 kBit/s
Quality : High
Add ID3 tag : No
Command line compressor : C:\Program Files\FLAC\flac.exe
Additional command line options : -6 -V -T "ARTIST=%a" -T "TITLE=%t" -T "ALBUM=%g" -T "DATE=%y" -T "TRACKNUMBER=%n" -T "GENRE=%m" -T "COMMENT=EAC FLAC -6" %s


TOC of the extracted CD

Track | Start | Length | Start sector | End sector
––––––––––––––––––––––––––––-
1 | 0:00.32 | 5:53.20 | 32 | 26526
2 | 5:53.52 | 10:28.25 | 26527 | 73651
3 | 16:22.02 | 3:49.40 | 73652 | 90866
4 | 20:11.42 | 10:22.63 | 90867 | 137579
5 | 30:34.30 | 5:36.17 | 137580 | 162796
6 | 36:10.47 | 10:55.60 | 162797 | 211981


Track 1

Filename C:\Charlie Mingus - Tijuana Moods. The Complete Edition (1962) [2CD] {2000 BMG 24-bit Remaster}\CD1\01 - Dizzy Moods.wav

Pre-gap length 0:00:02.32

Peak level 99.4 %
Track quality 100.0 %
Test CRC 97D8B672
Copy CRC 97D8B672
Accurately ripped (confidence 14) [C82E475A]
Copy OK

Track 2

Filename C:\Charlie Mingus - Tijuana Moods. The Complete Edition (1962) [2CD] {2000 BMG 24-bit Remaster}\CD1\02 - Ysabel's Table Dance.wav

Pre-gap length 0:00:02.00

Peak level 99.4 %
Track quality 100.0 %
Test CRC 82346D11
Copy CRC 82346D11
Accurately ripped (confidence 14) [D8185073]
Copy OK

Track 3

Filename C:\Charlie Mingus - Tijuana Moods. The Complete Edition (1962) [2CD] {2000 BMG 24-bit Remaster}\CD1\03 - Tijuana Gift Shop.wav

Pre-gap length 0:00:01.50

Peak level 99.4 %
Track quality 100.0 %
Test CRC 988D8143
Copy CRC 988D8143
Accurately ripped (confidence 13) [78E82501]
Copy OK

Track 4

Filename C:\Charlie Mingus - Tijuana Moods. The Complete Edition (1962) [2CD] {2000 BMG 24-bit Remaster}\CD1\04 - Los Mariachis (The Street Musicians).wav

Pre-gap length 0:00:02.00

Peak level 91.8 %
Track quality 100.0 %
Test CRC 87228258
Copy CRC 87228258
Accurately ripped (confidence 14) [AA2730BA]
Copy OK

Track 5

Filename C:\Charlie Mingus - Tijuana Moods. The Complete Edition (1962) [2CD] {2000 BMG 24-bit Remaster}\CD1\05 - Flamingo.wav

Pre-gap length 0:00:01.00

Peak level 99.4 %
Track quality 100.0 %
Test CRC BB2C2327
Copy CRC BB2C2327
Accurately ripped (confidence 14) [6EC1F9B3]
Copy OK

Track 6

Filename C:\Charlie Mingus - Tijuana Moods. The Complete Edition (1962) [2CD] {2000 BMG 24-bit Remaster}\CD1\06 - A Solloquial Dream (Scenes In The City) [bonus track].wav

Pre-gap length 0:00:02.00

Peak level 99.4 %
Track quality 100.0 %
Test CRC F7B45D1B
Copy CRC F7B45D1B
Accurately ripped (confidence 14) [6CC86D80]
Copy OK


All tracks accurately ripped

No errors occurred

End of status report
––––––––––––––––––––––––––––––––––––––––––––––––––––––––––––––––––––––––––––-
Exact Audio Copy V0.99 prebeta 5 from 4. May 2009

EAC extraction logfile from 29. October 2010, 21:43

Charles Mingus / Tijuana Moods (CD2)

Used drive : TSSTcorpCD/DVDW TS-H552L Adapter: 3 ID: 0

Read mode : Secure
Utilize accurate stream : Yes
Defeat audio cache : Yes
Make use of C2 pointers : No

Read offset correction : 6
Overread into Lead-In and Lead-Out : No
Fill up missing offset samples with silence : Yes
Delete leading and trailing silent blocks : No
Null samples used in CRC calculations : Yes
Used interface : Native Win32 interface for Win NT & 2000
Gap handling : Appended to previous track

Used output format : User Defined Encoder
Selected bitrate : 1024 kBit/s
Quality : High
Add ID3 tag : No
Command line compressor : C:\Program Files\FLAC\flac.exe
Additional command line options : -6 -V -T "ARTIST=%a" -T "TITLE=%t" -T "ALBUM=%g" -T "DATE=%y" -T "TRACKNUMBER=%n" -T "GENRE=%m" -T "COMMENT=EAC FLAC -6" %s


TOC of the extracted CD

Track | Start | Length | Start sector | End sector
––––––––––––––––––––––––––––-
1 | 0:00.32 | 8:24.03 | 32 | 37834
2 | 8:24.35 | 13:03.05 | 37835 | 96564
3 | 21:27.40 | 4:44.10 | 96565 | 117874
4 | 26:11.50 | 12:28.17 | 117875 | 173991
5 | 38:39.67 | 6:45.58 | 173992 | 204424
6 | 45:25.50 | 3:14.57 | 204425 | 219031


Track 1

Filename C:\Charlie Mingus - Tijuana Moods. The Complete Edition (1962) [2CD] {2000 BMG 24-bit Remaster}\CD2\01 - Dizzy Moods (Alternate take).wav

Pre-gap length 0:00:02.32

Peak level 99.4 %
Track quality 99.9 %
Test CRC D8929C6C
Copy CRC D8929C6C
Accurately ripped (confidence 13) [FA5AFC61]
Copy OK

Track 2

Filename C:\Charlie Mingus - Tijuana Moods. The Complete Edition (1962) [2CD] {2000 BMG 24-bit Remaster}\CD2\02 - Ysabel's Table Dance (Alternate take).wav

Pre-gap length 0:00:01.25

Peak level 91.3 %
Track quality 100.0 %
Test CRC 84165409
Copy CRC 84165409
Accurately ripped (confidence 13) [85685E15]
Copy OK

Track 3

Filename C:\Charlie Mingus - Tijuana Moods. The Complete Edition (1962) [2CD] {2000 BMG 24-bit Remaster}\CD2\03 - Tijuana Gift Shop (Alternate take).wav

Pre-gap length 0:00:02.00

Peak level 99.4 %
Track quality 100.0 %
Test CRC EA5F7E6E
Copy CRC EA5F7E6E
Accurately ripped (confidence 13) [21F6522B]
Copy OK

Track 4

Filename C:\Charlie Mingus - Tijuana Moods. The Complete Edition (1962) [2CD] {2000 BMG 24-bit Remaster}\CD2\04 - Los mariachis (Alternate take).wav

Pre-gap length 0:00:01.50

Peak level 95.3 %
Track quality 100.0 %
Test CRC 9F3D70A5
Copy CRC 9F3D70A5
Accurately ripped (confidence 13) [9C8D4404]
Copy OK

Track 5

Filename C:\Charlie Mingus - Tijuana Moods. The Complete Edition (1962) [2CD] {2000 BMG 24-bit Remaster}\CD2\05 - Flamingo (Alternate take).wav

Pre-gap length 0:00:00.74

Peak level 99.4 %
Track quality 99.9 %
Test CRC 8F5E4BAD
Copy CRC 8F5E4BAD
Accurately ripped (confidence 13) [5E4EC162]
Copy OK

Track 6

Filename C:\Charlie Mingus - Tijuana Moods. The Complete Edition (1962) [2CD] {2000 BMG 24-bit Remaster}\CD2\06 - A Colloquial Dream (Alternate take).wav

Pre-gap length 0:00:02.25

Peak level 91.9 %
Track quality 100.0 %
Test CRC E5FC38F5
Copy CRC E5FC38F5
Accurately ripped (confidence 13) [0F6B290F]
Copy OK


All tracks accurately ripped

No errors occurred

End of status report

HF Linkz

or

FSonic Linkz

p.s. the files are interchangeable…

No Mirror, plz!