Subcategories

Charlie Haden & Chris Anderson - None But The Lonely Heart (1997) [FLAC]

Posted By: Juma
Charlie Haden & Chris Anderson - None But The Lonely Heart (1997) [FLAC]

Charlie Haden & Chris Anderson - None But The Lonely Heart
FLAC (EAC rip) | separate tracks | Log + CUE | scans | ~300 MB incl. 3% recovery (3 files)
Genre: Jazz, Straightahead/Mainstream, Standards | Label: Naim (NAIMCD022) | Year: 1997

Chris Anderson is one of the unsung heroes of modern jazz piano. A revered figure among musicians, largely for his role as mentor to a young Herbie Hancock, Anderson has long been hindered by illness from aggressively pursuing his rightful place in the jazz limelight. As Charlie Haden poignantly states in the album's liner notes, "Chris is risking his life with every chord, that's how much it means to him." Although he has performed with everyone from Charlie Parker to Sun Ra over the course of his lengthy career, Anderson remains mostly unknown even to serious jazz fans. One hopes that this outstanding new duo effort with bass master Haden on the British Naim label helps to earn him some richly deserved acclaim.

A Chicago native reared on the blues and the music of Nat King Cole, Art Tatum, and Duke Ellington, Anderson years ago developed a rich harmonic sensibility influenced by European classical composers like Ravel and Debussy. His playing remains moody, quiet, and impressionistic, built on chordal improvisation rather than speedy right-hand runs, yet he never strays too far from his blues roots.

The album's song selection leans towards familiar ballad chestnuts like "Alone Together," "It Never Entered My Mind," and "Body and Soul." Anderson takes his time with these old tunes, focusing on tonality and harmony, to reveal all their melancholy spirit and beauty. And on the album's final two cuts, an original blues and a stirring take on the old Billie Holiday standard "Good Morning Heartache," he shows that for all his harmonic sophistication he can still get down with some old-fashioned barrelhouse blues piano.

Haden's accompaniment is sympathetic, never obtrusive, and always right on the money. Clearly this is a bassist who listens and who knows that less is often more. But Anderson is the star here, and one deserving the respect and admiration of every jazz fan.
Joel Roberts, allaboutjazz.com
Tracklist
01 The Night We Called It a Day (Matt Dennis, Thomas Adair) 13:21
02 I hear a Rhapsody (George Fragos, Jack Wayne Baker Jnr., Dick Gasparre) 07:04
03 Alone Together (Arthur Schwartz, Howard Dietz) 06:52
04 Nobody's Heart (Jim Eans) 10:33
05 Body and Soul (John Green, Frank Eyton, Edward Heyman, Robert Sour) 06:24
06 The Things We did Last Summer (Sammy Cahn, Julie Styne) 05:26
07 It Never Entered My Mind (Richard Rodgers, Lorenz Hart) 09:04
08 CC Blues (Charlie Haden, Chris Anderson) 05:25
09 Good Morning Heartache (Irene Higginbotham, Ervin M. Drake, Dan Fisher) 08:03

Total Time: 72:42

Charlie Haden - bass
Chris Anderson - piano

Recorded at Cami Hall, New York, 5th-7th July 1997

This album has already been posted in December 2008 by alexix but all the links in that post are now dead.
This is a new version with new links.




Exact Audio Copy V0.99 prebeta 4 from 23. January 2008

EAC extraction logfile from 3. June 2008, 9:18

Charlie Haden And Chris Anderson / None But the Lonely Heart

Used drive : PLEXTOR DVDR PX-755A Adapter: 2 ID: 2

Read mode : Secure
Utilize accurate stream : Yes
Defeat audio cache : Yes
Make use of C2 pointers : Yes

Read offset correction : 30
Overread into Lead-In and Lead-Out : Yes
Fill up missing offset samples with silence : Yes
Delete leading and trailing silent blocks : No
Null samples used in CRC calculations : No
Used interface : Native Win32 interface for Win NT & 2000
Gap handling : Appended to previous track

Used output format : User Defined Encoder
Selected bitrate : 768 kBit/s
Quality : High
Add ID3 tag : No
Command line compressor : C:\Program Files\Exact Audio Copy\FLAC\FLAC.EXE
Additional command line options : -6 -V -T "ARTIST=%a" -T "TITLE=%t" -T "ALBUM=%g" -T "DATE=%y" -T "TRACKNUMBER=%n" -T "GENRE=%m" -T "COMMENT=%e" %s -o %d


TOC of the extracted CD

Track | Start | Length | Start sector | End sector
––––––––––––––––––––––––––––-
1 | 0:00.00 | 13:19.02 | 0 | 59926
2 | 13:19.02 | 7:04.43 | 59927 | 91769
3 | 20:23.45 | 6:52.12 | 91770 | 122681
4 | 27:15.57 | 10:33.15 | 122682 | 170171
5 | 37:48.72 | 6:24.50 | 170172 | 199021
6 | 44:13.47 | 5:26.08 | 199022 | 223479
7 | 49:39.55 | 9:04.27 | 223480 | 264306
8 | 58:44.07 | 5:25.48 | 264307 | 288729
9 | 64:09.55 | 8:30.55 | 288730 | 327034


Track 1

Filename F:\Music\(01) The Night We Called It A Day - Charlie Haden And Chris Anderson.wav

Pre-gap length 0:00:02.00

Peak level 79.8 %
Track quality 100.0 %
Copy CRC E5B9B30A
Accurately ripped (confidence 3) [525D0241]
Copy OK

Track 2

Filename F:\Music\(02) I Hear A Rhapsody - Charlie Haden And Chris Anderson.wav

Peak level 75.3 %
Track quality 100.0 %
Copy CRC 8B7681A5
Accurately ripped (confidence 3) [ED23248A]
Copy OK

Track 3

Filename F:\Music\(03) Alone Together - Charlie Haden And Chris Anderson.wav

Peak level 78.5 %
Track quality 100.0 %
Copy CRC 09C46C6D
Accurately ripped (confidence 3) [6AF43B16]
Copy OK

Track 4

Filename F:\Music\(04) Nobody's Heart - Charlie Haden And Chris Anderson.wav

Peak level 72.9 %
Track quality 100.0 %
Copy CRC 428EEA71
Accurately ripped (confidence 3) [C759B203]
Copy OK

Track 5

Filename F:\Music\(05) Body And Soul - Charlie Haden And Chris Anderson.wav

Peak level 81.1 %
Track quality 100.0 %
Copy CRC 20D6FBE6
Accurately ripped (confidence 3) [EC658B7D]
Copy OK

Track 6

Filename F:\Music\(06) The Things We Did Last Summer - Charlie Haden And Chris Anderson.wav

Peak level 91.5 %
Track quality 100.0 %
Copy CRC 93668CE4
Accurately ripped (confidence 3) [AF058605]
Copy OK

Track 7

Filename F:\Music\(07) It Never Entered My Mind - Charlie Haden And Chris Anderson.wav

Peak level 90.8 %
Track quality 100.0 %
Copy CRC FAF36CB6
Accurately ripped (confidence 3) [33C77C28]
Copy OK

Track 8

Filename F:\Music\(08) CC Blues - Charlie Haden And Chris Anderson.wav

Peak level 83.3 %
Track quality 100.0 %
Copy CRC C30DDC3A
Accurately ripped (confidence 3) [94556193]
Copy OK

Track 9

Filename F:\Music\(09) Good Morning Heartache - Charlie Haden And Chris Anderson.wav

Peak level 89.8 %
Track quality 100.0 %
Copy CRC 65C47F06
Accurately ripped (confidence 3) [00F5B1B4]
Copy OK


All tracks accurately ripped

No errors occurred

End of status report