Subcategories

Charlie Shavers - The Most Intimate (1955) {2014 Japan Bethlehem Album Collection 1000 CDSOL-6152}

Posted By: ruskaval
Charlie Shavers - The Most Intimate (1955) {2014 Japan Bethlehem Album Collection 1000 CDSOL-6152}

Charlie Shavers - The Most Intimate (1955) {2014 Japan Bethlehem Album Collection 1000 CDSOL-6152}
EAC rip (secure mode) | FLAC (tracks)+CUE+LOG -> 180 Mb | MP3 @320 -> 78 Mb
Full Artwork @ 600 dpi (png) -> 188 Mb | 5% repair rar
© 1955, 2014 Solid Records / Bethlehem | CDSOL-6152 | LP BCP-5002
Jazz / Bop / Mainstream Jazz / Trumpet

Reissue. Features the latest remastering. Includes a Japanese description, lyrics. Features original cover artwork. Wonderfully sweet work from trumpeter Charlie Shavers – a set that has Shavers blowing on ballads over larger orchestrations – in a style that's really our favorite side of his music! Charlie's horn already has a long legacy by the time of this record – a slightly mature style that sounds wonderfully as he drifts magically over string-heavy backings from Sy Oliver – in a mode that's warm and lush, yet also beautifully soulful, and manages to really personalize the familiar tunes in the set. Titles include "Stella By Starlight", "Ill Wind", "Stormy Weather", "Out Of Nowhere", "Stardust", and "I Cover The Waterfront".
Charlie Shavers - The Most Intimate (1955) {2014 Japan Bethlehem Album Collection 1000 CDSOL-6152}


Personnel:
Charlie Shavers - trumpet
with
Large Studio Orchestra including Strings
by Sy Oliver (arranged and conducted)

Recorded in New York City, 1955

tracklist:
01 - Stella By Starlight
02 - Ill Wind
03 - Stormy Weather
04 - Out Of Nowhere
05 - Easy To Remember
06 - Stardust
07 - I Cover The Waterfront
08 - Memories Of You
09 - You're Mine You
10 - Let's Fall In Love

Exact Audio Copy V1.3 from 2. September 2016

EAC extraction logfile from 16. August 2017, 14:46

Charlie Shavers / The Most Intimate

Used drive : TSSTcorpCDDVDW SE-208DB Adapter: 1 ID: 1

Read mode : Secure
Utilize accurate stream : Yes
Defeat audio cache : Yes
Make use of C2 pointers : No

Read offset correction : 6
Overread into Lead-In and Lead-Out : No
Fill up missing offset samples with silence : Yes
Delete leading and trailing silent blocks : No
Null samples used in CRC calculations : Yes
Used interface : Native Win32 interface for Win NT & 2000
Gap handling : Appended to previous track

Used output format : User Defined Encoder
Selected bitrate : 1024 kBit/s
Quality : High
Add ID3 tag : No
Command line compressor : C:\Program Files (x86)\FLAC Frontend\tools\flac.exe
Additional command line options : -8 -V -T "ARTIST=%artist%" -T "TITLE=%title%" -T "ALBUM=%albumtitle%" -T "DATE=%year%" -T "TRACKNUMBER=%tracknr%" -T "TOTALTRACKS=%numtracks%" -T "GENRE=%genre%" -T "ALBUMARTIST=%albumartist%" -T "ALBUM ARTIST=%albumartist%" -T "COMMENT=EAC Secure Mode, Test & Copy, AccurateRip, FLAC -8" %source%


TOC of the extracted CD

Track | Start | Length | Start sector | End sector
––––––––––––––––––––––––––––-
1 | 0:00.00 | 2:53.24 | 0 | 12998
2 | 2:53.24 | 2:54.44 | 12999 | 26092
3 | 5:47.68 | 3:42.46 | 26093 | 42788
4 | 9:30.39 | 3:49.02 | 42789 | 59965
5 | 13:19.41 | 2:51.17 | 59966 | 72807
6 | 16:10.58 | 3:27.74 | 72808 | 88406
7 | 19:38.57 | 3:13.65 | 88407 | 102946
8 | 22:52.47 | 3:22.01 | 102947 | 118097
9 | 26:14.48 | 3:15.15 | 118098 | 132737
10 | 29:29.63 | 3:43.03 | 132738 | 149465


Track 1

Filename E:\EAC_RIP\Charlie Shavers - The Most Intimate (1955) [FLAC] {Bethlehem Japan CDSOL-6152 rel 2014}\01 - Stella By Starlight.wav

Pre-gap length 0:00:02.00

Peak level 98.2 %
Extraction speed 2.0 X
Track quality 100.0 %
Test CRC 13837599
Copy CRC 13837599
Accurately ripped (confidence 1) [4F6BE6C3] (AR v2)
Copy OK

Track 2

Filename E:\EAC_RIP\Charlie Shavers - The Most Intimate (1955) [FLAC] {Bethlehem Japan CDSOL-6152 rel 2014}\02 - Ill Wind.wav

Peak level 98.2 %
Extraction speed 1.9 X
Track quality 99.9 %
Test CRC 4B4DB86D
Copy CRC 4B4DB86D
Accurately ripped (confidence 1) [1F9192E6] (AR v2)
Copy OK

Track 3

Filename E:\EAC_RIP\Charlie Shavers - The Most Intimate (1955) [FLAC] {Bethlehem Japan CDSOL-6152 rel 2014}\03 - Stormy Weather.wav

Peak level 98.2 %
Extraction speed 2.8 X
Track quality 100.0 %
Test CRC 6F05D4B6
Copy CRC 6F05D4B6
Accurately ripped (confidence 1) [93D52C81] (AR v2)
Copy OK

Track 4

Filename E:\EAC_RIP\Charlie Shavers - The Most Intimate (1955) [FLAC] {Bethlehem Japan CDSOL-6152 rel 2014}\04 - Out Of Nowhere.wav

Peak level 98.2 %
Extraction speed 2.9 X
Track quality 100.0 %
Test CRC 2208A0F9
Copy CRC 2208A0F9
Accurately ripped (confidence 1) [4083D97C] (AR v2)
Copy OK

Track 5

Filename E:\EAC_RIP\Charlie Shavers - The Most Intimate (1955) [FLAC] {Bethlehem Japan CDSOL-6152 rel 2014}\05 - Easy To Remember.wav

Peak level 98.2 %
Extraction speed 3.1 X
Track quality 100.0 %
Test CRC 786773D8
Copy CRC 786773D8
Accurately ripped (confidence 1) [FB4AA652] (AR v2)
Copy OK

Track 6

Filename E:\EAC_RIP\Charlie Shavers - The Most Intimate (1955) [FLAC] {Bethlehem Japan CDSOL-6152 rel 2014}\06 - Stardust.wav

Peak level 98.3 %
Extraction speed 3.4 X
Track quality 100.0 %
Test CRC AA2785B1
Copy CRC AA2785B1
Accurately ripped (confidence 1) [0BCEAD0D] (AR v2)
Copy OK

Track 7

Filename E:\EAC_RIP\Charlie Shavers - The Most Intimate (1955) [FLAC] {Bethlehem Japan CDSOL-6152 rel 2014}\07 - I Cover The Waterfront.wav

Peak level 98.2 %
Extraction speed 2.8 X
Track quality 99.9 %
Test CRC F5009C64
Copy CRC F5009C64
Accurately ripped (confidence 1) [D9E58EB7] (AR v2)
Copy OK

Track 8

Filename E:\EAC_RIP\Charlie Shavers - The Most Intimate (1955) [FLAC] {Bethlehem Japan CDSOL-6152 rel 2014}\08 - Memories Of You.wav

Peak level 98.2 %
Extraction speed 3.7 X
Track quality 100.0 %
Test CRC 90F59753
Copy CRC 90F59753
Accurately ripped (confidence 1) [E954045C] (AR v2)
Copy OK

Track 9

Filename E:\EAC_RIP\Charlie Shavers - The Most Intimate (1955) [FLAC] {Bethlehem Japan CDSOL-6152 rel 2014}\09 - You're Mine You.wav

Peak level 98.2 %
Extraction speed 3.0 X
Track quality 99.9 %
Test CRC E3107C69
Copy CRC E3107C69
Accurately ripped (confidence 1) [C04A7D7E] (AR v2)
Copy OK

Track 10

Filename E:\EAC_RIP\Charlie Shavers - The Most Intimate (1955) [FLAC] {Bethlehem Japan CDSOL-6152 rel 2014}\10 - Let's Fall In Love.wav

Peak level 98.3 %
Extraction speed 4.1 X
Track quality 100.0 %
Test CRC 17CFDC01
Copy CRC 17CFDC01
Accurately ripped (confidence 1) [223F8C5E] (AR v2)
Copy OK


All tracks accurately ripped

No errors occurred

End of status report

–– CUETools DB Plugin V2.1.6

[CTDB TOCID: NKuH5Z.Olzhd3usG.TBuT9PjiqU-] disk not present in database
Submit result: NKuH5Z.Olzhd3usG.TBuT9PjiqU- has been uploaded


==== Log checksum 1C2FC888A9B79FF8B7A81283EDDA2E9B66BC5DCB6849EE85A035A8585C86EDD0 ====


Charlie Shavers - The Most Intimate (1955) {2014 Japan Bethlehem Album Collection 1000 CDSOL-6152}

Charlie Shavers - The Most Intimate (1955) {2014 Japan Bethlehem Album Collection 1000 CDSOL-6152}


more Bethlehem Records Album Collection…


===