Subcategories

Charlotte Church - Charlotte Church (1999, Sony Classical # SK 89003)

Posted By: luckburz
Charlotte Church - Charlotte Church (1999, Sony Classical # SK 89003)

Charlotte Church - Charlotte Church
EAC+LOG+CUE | FLAC: 260 MB | Full Artwork: 97 MB | 5% Recovery Info
Label/Cat#: Sony Classical # SK 89003 | Country/Year: Europe 1999
Genre: Classical, Pop | Style: Classical, Vocal, Ballad

MD5 [X] CUE [X] LOG [X] INFO TEXT [X] ARTWORK [X]

my rip [X] not my rip [ ]

Charlotte Church - Charlotte Church (1999, Sony Classical # SK 89003)


Exact Audio Copy V1.0 beta 3 from 29. August 2011

EAC extraction logfile from 17. July 2013, 13:14

Charlotte Church / Charlotte Church

Used drive : PIONEER BD-RW BDR-206 Adapter: 0 ID: 2

Read mode : Secure
Utilize accurate stream : Yes
Defeat audio cache : Yes
Make use of C2 pointers : No

Read offset correction : 667
Overread into Lead-In and Lead-Out : No
Fill up missing offset samples with silence : Yes
Delete leading and trailing silent blocks : No
Null samples used in CRC calculations : Yes
Used interface : Native Win32 interface for Win NT & 2000

Used output format : User Defined Encoder
Selected bitrate : 1024 kBit/s
Quality : High
Add ID3 tag : Yes
Command line compressor : C:\Program Files\FLAC\flac.exe
Additional command line options : -5 -T "Artist=%artist%" -T "Title=%title%" -T "Album=%albumtitle%" -T "Date=%year%" -T "Tracknumber=%tracknr%" -T "Genre=%genre%" %source% -o %dest%


TOC of the extracted CD

Track | Start | Length | Start sector | End sector
––––––––––––––––––––––––––––-
1 | 0:00.00 | 3:58.52 | 0 | 17901
2 | 3:58.52 | 2:29.13 | 17902 | 29089
3 | 6:27.65 | 2:41.00 | 29090 | 41164
4 | 9:08.65 | 2:21.55 | 41165 | 51794
5 | 11:30.45 | 4:16.70 | 51795 | 71064
6 | 15:47.40 | 2:39.42 | 71065 | 83031
7 | 18:27.07 | 4:56.63 | 83032 | 105294
8 | 23:23.70 | 3:28.57 | 105295 | 120951
9 | 26:52.52 | 3:06.45 | 120952 | 134946
10 | 29:59.22 | 2:07.70 | 134947 | 144541
11 | 32:07.17 | 2:37.63 | 144542 | 156379
12 | 34:45.05 | 3:03.12 | 156380 | 170116
13 | 37:48.17 | 2:24.73 | 170117 | 180989
14 | 40:13.15 | 2:31.20 | 180990 | 192334
15 | 42:44.35 | 3:19.25 | 192335 | 207284
16 | 46:03.60 | 3:20.62 | 207285 | 222346
17 | 49:24.47 | 2:22.48 | 222347 | 233044
18 | 51:47.20 | 3:44.00 | 233045 | 249844


Range status and errors

Selected range

Filename F:\=== VINYL RIPS ===\=== EAC===\X FRESH RIP\Charlotte Church - Charlotte Church.wav

Peak level 99.5 %
Extraction speed 1.1 X
Range quality 100.0 %
Test CRC 7F6E961A
Copy CRC 7F6E961A
Copy OK

No errors occurred


AccurateRip summary

Track 1 accurately ripped (confidence 6) [3CB42EE2] (AR v2)
Track 2 accurately ripped (confidence 6) [7DC2D036] (AR v2)
Track 3 accurately ripped (confidence 6) [AA649340] (AR v2)
Track 4 accurately ripped (confidence 6) [2547D450] (AR v2)
Track 5 accurately ripped (confidence 6) [DC8E2C64] (AR v2)
Track 6 accurately ripped (confidence 6) [BA83463B] (AR v2)
Track 7 accurately ripped (confidence 6) [B32497D3] (AR v2)
Track 8 accurately ripped (confidence 6) [A6C08B00] (AR v2)
Track 9 accurately ripped (confidence 6) [E7F86A25] (AR v2)
Track 10 accurately ripped (confidence 6) [A10A895D] (AR v2)
Track 11 accurately ripped (confidence 6) [3A96E827] (AR v2)
Track 12 accurately ripped (confidence 6) [FE1985A6] (AR v2)
Track 13 accurately ripped (confidence 6) [A7938D45] (AR v2)
Track 14 accurately ripped (confidence 6) [4D7239E4] (AR v2)
Track 15 accurately ripped (confidence 6) [D2A299E4] (AR v2)
Track 16 accurately ripped (confidence 6) [CA73E5F7] (AR v2)
Track 17 accurately ripped (confidence 6) [0FC094E8] (AR v2)
Track 18 accurately ripped (confidence 6) [CB68A8BD] (AR v2)

All tracks accurately ripped

End of status report

–– CUETools DB Plugin V2.1.3

[CTDB TOCID: HC9cs383uY7qbtsxdd8sGsplqtU-] found, Submit result: HC9cs383uY7qbtsxdd8sGsplqtU- has been confirmed
[65b62b5f] (16/19) Accurately ripped
[2e9c320b] (01/19) No match
[6abe21ab] (01/19) No match
[e8e7d353] (01/19) No match


==== Log checksum 315229E6B305FB3CF5664A2BB2C8DB711C7FD683E5E44AC17DCF73C685195ACD ====

foobar2000 1.1.14a / Dynamic Range Meter 1.1.1
log date: 2013-07-19 10:42:11

––––––––––––––––––––––––––––––––––––––––
Analyzed: Charlotte Church / Charlotte Church
––––––––––––––––––––––––––––––––––––––––

DR Peak RMS Duration Track
––––––––––––––––––––––––––––––––––––––––
DR11 -1.00 dB -16.33 dB 3:59 01-Just Wave Hello
DR12 -0.09 dB -16.57 dB 2:29 02-La Pastorella
DR11 -0.10 dB -16.18 dB 2:41 03-Barcarolle (Night of Stars)
DR10 -1.11 dB -16.72 dB 2:22 04-O mio babbino caro
DR11 -2.59 dB -18.04 dB 4:17 05-Lascia ch'io pianga
DR10 -0.04 dB -13.44 dB 2:40 06-Guide me, O Thou Great Redeemer
DR11 -0.09 dB -15.81 dB 4:57 07-The Holy City
DR12 -0.10 dB -17.36 dB 3:29 08-Plaisir d'amour
DR10 -2.85 dB -17.28 dB 3:07 09-Summertime
DR12 -0.09 dB -16.69 dB 2:08 10-The Jewel Song
DR11 -0.09 dB -14.77 dB 2:38 11-Voi Che Sapete (Tell Me What Love Is)
DR12 -0.10 dB -18.30 dB 3:03 12-She Moved Through the Fair
DR9 -3.50 dB -17.78 dB 2:25 13-Songs My Mother Taught Me
DR10 -2.69 dB -16.45 dB 2:31 14-If Thou Art Near
DR12 -2.67 dB -19.86 dB 3:19 15-The Last Rose of Summer
DR11 -0.09 dB -14.97 dB 3:21 16-Men of Harlech
DR10 -2.27 dB -19.64 dB 2:23 17-Lullaby
DR10 -0.07 dB -14.45 dB 3:44 18-Silent Night
––––––––––––––––––––––––––––––––––––––––

Number of tracks: 18
Official DR value: DR11

Samplerate: 44100 Hz
Channels: 2
Bits per sample: 16
Bitrate: 624 kbps
Codec: FLAC
================================================================================



CD Info:

Charlotte Church - Charlotte Church

London Symphony Orchestra & Chorus / Siân Edwards

Label: Sony Classical
Catalog#: SK 89003
Format: CD, Album
Country: UK & Europe
Released: 1999
Genre: Classical, Pop
Style: Classical, Vocal, Ballad

Tracklist:

1 Just Wave Hello 3:53
2 La Pastorella 2:27
3 Barcarolle (Night Of Stars) 2:38
4 O Mio Babbino Caro 2:18
5 Lascia Ch'io Pianga 4:14
6 Guide Me, O Thou Great Redeemer 2:38
7 The Holy City 4:54
8 Plaisir D'amour 3:25
9 Summertime 3:03
10 The Jewel Song 2:05
11 Voi Che Sapete (Tell Me What Love Is) 2:36
12 She Moved Through The Fair 3:01
13 Songs My Mother Taught Me 2:23
14 If Thou Art Near 2:29
15 The Last Rose Of Summer 3:16
16 Men Of Harlech 3:18
17 Lullaby 2:08

Credits:

Choir – London Symphony Chorus
Conductor – Siân Edwards
Orchestra – London Symphony Orchestra

Review by Stephen Thomas Erlewine

Charlotte Church's debut album Voice of an Angel won a large crossover audience – an audience much larger than the average opera record gets, let alone a record made by a 12-year-old. So, for her second album Charlotte Church – which followed the debut by a matter of months in the U.S., showing just what a huge hit it was – it would have made sense to simply offer more of the same, since that would satisfy her large audience. And, to a certain extent, that is what the second album does. However, the opera pieces are now not the focus of the record; they're just part of the tapestry. Pop standards like "Summertime" and traditional songs like "She Moved Through the Fair" rub shoulders with Brahms and Puccini. Most notably, the record kicks off with "Just Wave Hello," a new age crossover item underpinned by a vague trip-hop beat that was borrowed from Enigma. Written by her producer Danny Beckerman, it is a clear bid for a new, even larger audience – one who normally doesn't buy opera albums but likes classy, quality singers. Of course, that's Church's audience, but this time she and her colleagues are reaching for an even broader base, and on those terms, they succeed. Naturally, that will just irritate the classical and opera purists who were ready to criticize her anyway, given that they believe she, at her tender age, simply isn't mature or skillful enough for much of this material. They may be right – she doesn't really offer interpretations as much as readings, and for how charming and pretty her voice is, she's not really schooled. The thing is, that doesn't distract from the effectiveness of Charlotte Church. Yes, "Just Wave Hello" already sounds dated, but the rest of the record boasts accomplished, professional (albeit mainstream) production and arrangements and, lest we forget, a very gifted, endearing vocalist called Charlotte Church. She has a sweet, pure soprano voice that will charm and win over listeners who don't consider themselves opera fans. Whether it wins opera fanatics is another matter entirely, but this album wasn't made for them anyway. ~allmusic

Charlotte Church - Charlotte Church (1999, Sony Classical # SK 89003)


all of my uploads in my blog
________________

NITROFLARE
Music | | Artwork

________________
________________

FILEPOST
Music | | Artwork

________________