Subcategories

Hariprasad Chaurasia & Dr. M. Balamurali Krishna - Murali Prasadam - Live at the Hong Kong (1994) {Sony-Navras Records NR00412}

Posted By: ruskaval
Hariprasad Chaurasia & Dr. M. Balamurali Krishna - Murali Prasadam - Live at the Hong Kong (1994) {Sony-Navras Records NR00412}

Hariprasad Chaurasia & Dr. M. Balamurali Krishna - Murali Prasadam - Live at the Hong Kong (1994) {Sony-Navras Records NR00412}
EAC rip (secure mode) | FLAC (tracks)+CUE+LOG -> 250 Mb | MP3 @320 -> 151 Mb
Full Artwork @ 300 dpi (png) -> 34 Mb | 5% repair rar
© 1994 Sony BMG / Navras Records | NR0041 2
Indian Music / World Music / Classical / Vocal / Carnatic Vocal & Flute Jugalbandi / Duet

Guess I don't need to introduce these two legends if you are following my releases of them in a while. However, let me repeat 'Pandit Hariprasad Chaurasia' and 'Dr. Balamurali Krishna' are two of the greatest doyens of their traditions. And in many aspects, this Jugalbandi Live in Hong Kong is one of the greatest moments of Indian Classical.

In this concert, "Raga Mohanam/Bhoopali, an evening raga has been played. This concert can be divided into three parts (Alap, Composition and Drum duets) and in between you can hear the brief introductions of the artists. The album starts with an introduction by 'Pandit Hariprasad Chaurasia' about what Raga they are going to be played. Then, Balamurali Krishna sets the mood for the raga with his nice Alap where 'Hariprasad Chaurasia' joins with his Bansuri flute and it flows like river for about 35 minutes. Then, before composition part starts, 'Dr. Balamurali Krishna' briefly introduces in a very humorous way. In this composition, Dr. Balamurali Krishna adds some spontaneous lyrics to the tune of 'Hariprasad Chaurasia' which is simply mind blowing covering both artists names in the lyrics. You have to listen to this as I have no words to describe it. And the last track of the album entirely devoted to drum duets between Tabla and Mridangam players. IMO, one of the greatest Jugalbandi duets of my vault. Enjoy.
Hariprasad Chaurasia & Dr. M. Balamurali Krishna - Murali Prasadam - Live at the Hong Kong (1994) {Sony-Navras Records NR00412}


Personnel:
Murali Prasadam: Live at the Hong Kong Cultural Centre, January 1994 {The Jugalbandi Series}

Pandit Hariprasad Chaurasia (Bansuri Flute) & Dr. M. Balamurali Krishna (Vocals)

Accompanied:
Subhankar Banerjee (Tabla), Purnachander Rao (Violin) & Bombay Balajee (Mridangam)

tracklist:
01 - Hariprasad Chaurasia - Introduction
02 - Hariprasad Chaurasia & Dr. M. Balamurali Krishna - Raga Mohanam & Bhoopali - Alap
03 - Dr. M. Balamurali Krishna - Compositions Introduction
04 - Hariprasad Chaurasia & Dr. M. Balamurali Krishna - Raga Mohanam & Bhoopali - Drut Gat in Teentaal
05 - Hariprasad Chaurasia & Dr. M. Balamurali Krishna - Raga Mohanam & Bhoopali - Drut Gat in Aditaal

Exact Audio Copy V1.1 from 23. June 2015

EAC extraction logfile from 24. November 2016, 8:51

Hariprasad Chaurasia & Dr. M. Balamurali Krishna / Murali Prasadam - Live at the Hong Kong

Used drive : PLDS DVD+-RW DU-8A5LH Adapter: 1 ID: 0

Read mode : Secure
Utilize accurate stream : Yes
Defeat audio cache : Yes
Make use of C2 pointers : No

Read offset correction : 6
Overread into Lead-In and Lead-Out : No
Fill up missing offset samples with silence : Yes
Delete leading and trailing silent blocks : No
Null samples used in CRC calculations : Yes
Used interface : Native Win32 interface for Win NT & 2000
Gap handling : Appended to previous track

Used output format : User Defined Encoder
Selected bitrate : 128 kBit/s
Quality : High
Add ID3 tag : No
Command line compressor : C:\Program Files (x86)\Exact Audio Copy\Flac\flac.exe
Additional command line options : -6 -V -T "ARTIST=%artist%" -T "TITLE=%title%" -T "ALBUM=%albumtitle%" -T "DATE=%year%" -T "TRACKNUMBER=%tracknr%" -T "TOTALTRACKS=%numtracks%" -T "GENRE=%genre%" -T "ALBUMARTIST=%albumartist%" -T "ALBUM ARTIST=%albumartist%" -T "COMMENT=Authentic 'Wildstrings' RIP With EAC Secure Mode, Test & Copy, AccurateRip, FLAC -6" %source%


TOC of the extracted CD

Track | Start | Length | Start sector | End sector
––––––––––––––––––––––––––––-
1 | 0:00.32 | 0:47.45 | 32 | 3601
2 | 0:48.02 | 34:03.03 | 3602 | 156829
3 | 34:51.05 | 1:25.32 | 156830 | 163236
4 | 36:16.37 | 15:27.58 | 163237 | 232819
5 | 51:44.20 | 12:11.17 | 232820 | 287661


Track 1

Filename E:\Wildstrings\01 - Hariprasad Chaurasia - Introduction.wav

Pre-gap length 0:00:02.32

Peak level 48.3 %
Extraction speed 0.7 X
Track quality 100.0 %
Test CRC 5DD6F954
Copy CRC 5DD6F954
Track not present in AccurateRip database
Copy OK

Track 2

Filename E:\Wildstrings\02 - Hariprasad Chaurasia & Dr. M. Balamurali Krishna - Raga Mohanam & Bhoopali - Alap.wav

Peak level 84.9 %
Extraction speed 1.7 X
Track quality 100.0 %
Test CRC 3E8549C6
Copy CRC 3E8549C6
Track not present in AccurateRip database
Copy OK

Track 3

Filename E:\Wildstrings\03 - Dr. M. Balamurali Krishna - Compositions Introduction.wav

Peak level 18.2 %
Extraction speed 1.6 X
Track quality 100.0 %
Test CRC 7CAA7E35
Copy CRC 7CAA7E35
Track not present in AccurateRip database
Copy OK

Track 4

Filename E:\Wildstrings\04 - Hariprasad Chaurasia & Dr. M. Balamurali Krishna - Raga Mohanam & Bhoopali - Drut Gat in Teentaal.wav

Peak level 100.0 %
Extraction speed 2.4 X
Track quality 100.0 %
Test CRC 4DEE11D5
Copy CRC 4DEE11D5
Track not present in AccurateRip database
Copy OK

Track 5

Filename E:\Wildstrings\05 - Hariprasad Chaurasia & Dr. M. Balamurali Krishna - Raga Mohanam & Bhoopali - Drut Gat in Aditaal.wav

Peak level 59.9 %
Extraction speed 2.6 X
Track quality 100.0 %
Test CRC 40065EB1
Copy CRC 40065EB1
Track not present in AccurateRip database
Copy OK


None of the tracks are present in the AccurateRip database

No errors occurred

End of status report

–– CUETools DB Plugin V2.1.6

[CTDB TOCID: EDdT6Sql187rFpkTldcWIJz0GCw-] found
Submit result: EDdT6Sql187rFpkTldcWIJz0GCw- has been uploaded
Track | CTDB Status
1 | (1/1) Accurately ripped
2 | (1/1) Accurately ripped
3 | (1/1) Accurately ripped
4 | (1/1) Accurately ripped
5 | (1/1) Accurately ripped


==== Log checksum 80640061FCFE866BE17C6B35BEFC2244E6B20F2CD86D065CFCE775785AB7FC17 ====


Hariprasad Chaurasia & Dr. M. Balamurali Krishna - Murali 			  		      	 			   		      	 			   		      	 			   		    			 Prasadam - Live at the Hong Kong (1994) {Sony-Navras Records NR00412}

Hariprasad Chaurasia & Dr. M. Balamurali Krishna - Murali Prasadam - Live at the Hong Kong (1994) {Sony-Navras Records NR00412}




NEXT -> more Indian music on the way…


===