Subcategories

Chicago - Christmas: What's it gonna be, Santa? (2003)

Posted By: Speedyclick
Chicago - Christmas: What's it gonna be, Santa? (2003)

Chicago - Christmas: What's it gonna be, Santa? (2003)
EAC Rip | FLAC (tracks & cue & log) & mp3 @ 320 kbps | tracks: 20 | Full Scans | 1:14:20 | ~ 627 Mb & 266 Mb
Label: Rhino | 5% recovery record | Xmas, pop

A remastered release based on the legendary 1998 Christmas album by the famous "American rock band with horns", with some great new recordings added, including soulful versions of "Winter wonderland", "Bethlehem", "This Christmas", "Sleigh ride" and "Roudolph, the red nosed reindeer". As trumpetist Lee Loughnane explains: "We're very good at doing arrangements of material that you've already heard, so you would never recognize the song until you hear the melody". Christmas carols are no exception. You will find a wonderful booklet included with lots of information and comments about the album. Enjoy.

TRACKLIST
01. Winter Wonderland
02. Let It Snow! Let It Snow! Let It Snow!
03. Jolly Old St. Nicholas
04. Little Drummer Boy
05. This Christmas
06. Feliz Navidad
07. Bethlehem
08. The Christmas Song
09. O Come All Ye Faithful
10. Rudolph, The Red-Nosed Reindeer
11. Have Yourself A Merry Little Christmas
12. Sleigh Ride
13. Silent Night
14. What Child Is This
15. Christmas Time Is Here
16. God Rest Ye Merry, Gentlemen
17. Santa Claus Is Coming To Town
18. Child's Prayer
19. One Little Candle
20. White Christmas

EAC extraction logfile from 3. December 2006, 20:26 for CD
Chicago / Chicago Christmas - What's It Gonna Be, Santa?

Used drive : ATAPI DVD DD 2X16X4X16 Adapter: 3 ID: 1
Read mode : Secure with NO C2, accurate stream, disable cache
Read offset correction : 618
Overread into Lead-In and Lead-Out : No

Used output format : C:\Program Files\FLAC\flac.exe (User Defined Encoder)
192 kBit/s
Additional command line options : -5 -V -T "ARTIST=%a" -T "TITLE=%t" -T "ALBUM=%g" -T "DATE=%y" -T "TRACKNUMBER=%n" -T "GENRE=%m" -T "COMMENT=EAC Flac 1.1.2 -5" %s

Other options :
Fill up missing offset samples with silence : Yes
Delete leading and trailing silent blocks : No
Installed external ASPI interface


Track 1
Filename D:\Music\Chicago - Chicago Christmas-What's It Gonna Be, Santa\01 - Winter Wonderland.wav

Pre-gap length 0:00:02.00

Peak level 98.8 %
Track quality 100.0 %
Test CRC 29803450
Copy CRC 29803450
Copy OK

Track 2
Filename D:\Music\Chicago - Chicago Christmas-What's It Gonna Be, Santa\02 - Let It Snow! Let It Snow! Let It Snow!.wav

Peak level 98.8 %
Track quality 100.0 %
Test CRC 3AA1052E
Copy CRC 3AA1052E
Copy OK

Track 3
Filename D:\Music\Chicago - Chicago Christmas-What's It Gonna Be, Santa\03 - Jolly Old St. Nicholas.wav

Peak level 98.8 %
Track quality 100.0 %
Test CRC 513C7334
Copy CRC 513C7334
Copy OK

Track 4
Filename D:\Music\Chicago - Chicago Christmas-What's It Gonna Be, Santa\04 - Little Drummer Boy.wav

Peak level 98.8 %
Track quality 100.0 %
Test CRC 934680FD
Copy CRC 934680FD
Copy OK

Track 5
Filename D:\Music\Chicago - Chicago Christmas-What's It Gonna Be, Santa\05 - This Christmas.wav

Peak level 98.8 %
Track quality 100.0 %
Test CRC 49ACF590
Copy CRC 49ACF590
Copy OK

Track 6
Filename D:\Music\Chicago - Chicago Christmas-What's It Gonna Be, Santa\06 - Feliz Navidad.wav

Peak level 98.8 %
Track quality 100.0 %
Test CRC 39B92F7F
Copy CRC 39B92F7F
Copy OK

Track 7
Filename D:\Music\Chicago - Chicago Christmas-What's It Gonna Be, Santa\07 - Bethlehem.wav

Peak level 98.9 %
Track quality 100.0 %
Test CRC 22B74BBD
Copy CRC 22B74BBD
Copy OK

Track 8
Filename D:\Music\Chicago - Chicago Christmas-What's It Gonna Be, Santa\08 - The Christmas Song.wav

Peak level 98.9 %
Track quality 100.0 %
Test CRC 439AB6AE
Copy CRC 439AB6AE
Copy OK

Track 9
Filename D:\Music\Chicago - Chicago Christmas-What's It Gonna Be, Santa\09 - O Come All Ye Faithful.wav

Peak level 100.0 %
Track quality 99.9 %
Test CRC 9CA81235
Copy CRC 9CA81235
Copy OK

Track 10
Filename D:\Music\Chicago - Chicago Christmas-What's It Gonna Be, Santa\10 - Rudolph, The Red-Nosed Reindeer.wav

Peak level 98.9 %
Track quality 100.0 %
Test CRC 077C1783
Copy CRC 077C1783
Copy OK

Track 11
Filename D:\Music\Chicago - Chicago Christmas-What's It Gonna Be, Santa\11 - Have Yourself A Merry Little Christmas.wav

Peak level 98.8 %
Track quality 100.0 %
Test CRC 5F109E74
Copy CRC 5F109E74
Copy OK

Track 12
Filename D:\Music\Chicago - Chicago Christmas-What's It Gonna Be, Santa\12 - Sleigh Ride.wav

Peak level 98.8 %
Track quality 99.9 %
Test CRC 2F08918B
Copy CRC 2F08918B
Copy OK

Track 13
Filename D:\Music\Chicago - Chicago Christmas-What's It Gonna Be, Santa\13 - Silent Night.wav

Peak level 98.8 %
Track quality 100.0 %
Test CRC 5E855ABE
Copy CRC 5E855ABE
Copy OK

Track 14
Filename D:\Music\Chicago - Chicago Christmas-What's It Gonna Be, Santa\14 - What Child Is This .wav

Peak level 98.8 %
Track quality 100.0 %
Test CRC 8509BD00
Copy CRC 8509BD00
Copy OK

Track 15
Filename D:\Music\Chicago - Chicago Christmas-What's It Gonna Be, Santa\15 - Christmas Time Is Here.wav

Peak level 98.8 %
Track quality 100.0 %
Test CRC 7B286E6A
Copy CRC 7B286E6A
Copy OK

Track 16
Filename D:\Music\Chicago - Chicago Christmas-What's It Gonna Be, Santa\16 - God Rest Ye Merry, Gentlemen.wav

Peak level 98.9 %
Track quality 100.0 %
Test CRC 68413031
Copy CRC 68413031
Copy OK

Track 17
Filename D:\Music\Chicago - Chicago Christmas-What's It Gonna Be, Santa\17 - Santa Claus Is Coming To Town.wav

Peak level 98.8 %
Track quality 100.0 %
Test CRC 46703289
Copy CRC 46703289
Copy OK

Track 18
Filename D:\Music\Chicago - Chicago Christmas-What's It Gonna Be, Santa\18 - Child's Prayer.wav

Peak level 99.9 %
Track quality 100.0 %
Test CRC FF8537CC
Copy CRC FF8537CC
Copy OK

Track 19
Filename D:\Music\Chicago - Chicago Christmas-What's It Gonna Be, Santa\19 - One Little Candle.wav

Peak level 99.9 %
Track quality 99.8 %
Test CRC 29EEAFE6
Copy CRC 29EEAFE6
Copy OK

Track 20
Filename D:\Music\Chicago - Chicago Christmas-What's It Gonna Be, Santa\20 - White Christmas.wav

Peak level 98.8 %
Track quality 100.0 %
Test CRC 2C830CE4
Copy CRC 2C830CE4
Copy OK

No errors occured


End of status report

Credits to the initial ripper / uploader