Subcategories

Chico Hamilton & Paul Horn - Chico Hamilton with Paul Horn (Japan Edition) (1963/2010)

Posted By: Domestos
Chico Hamilton & Paul Horn - Chico Hamilton with Paul Horn (Japan Edition) (1963/2010)

Chico Hamilton & Paul Horn - Chico Hamilton with Paul Horn (Japan Edition) (1963/2010)
EAC Rip | FLAC (tracks+.cue, log) ~ 125.55 Mb | 32:13 | Cover
West Coast Jazz, Cool | Label: P-Vine Records - PCD-20176

Drummer Chico Hamilton, who is still going strong at age 91, is a truely unique visionary. In 1955, when jazz was beginning to flourish in many different directions, Hamilton made history by adopting an entirely new quintet format which includes a single reed instrument, guitar, cello, bass and drums. The cellist Fred Katz, who would mostly play with the bow, was considered as one of the "front" players. Youg reed player Paul Horn was the second horn player of the group who replaced the inaugural member Buddy Collette. The main part of this compilation album, released in 1963, is the four tracks (Track 5 through 8) by that edition of the Chico Hamilton Quintet. The rest are taken from two earlier recording sessions. Tracks 1 and 2 were recorded in 1956 and features Hamilton's trio with the young Jim Hall, who was 25 years old at the time, and George Duvivier. Tracks 3 and 4 were recorded in 1954 with Howard Roberts and Duvivier.

Chico Hamilton - drums
Paul Horn - alto saxophone, clarinet, flute
Fred Katz - cello
John Pisano, Jim Hall, Howard Roberts - guitar
Carson Smith, George Duvivier - bass

Recorded in October 1954 (#3,4), February 1956 (#1,2), and March 1957 (#5-8).

Track List:
01. Porch Light (Duvivier) - 4:02
02. Autumn Landscape (Duvivier) - 3:44
03. Uyawda (Trad.) - 4:43
04. Lolly Pop (Hamilton-Hamilton-Wiggins) - 2:19
05. Pluck It (Katz) - 2:59
06. Katz Up (Katz) - 3:52
07. Crazy Cats (Katz) - 3:02
08. Lord Randell (Katz) - 7:32

Exact Audio Copy V1.3 from 2. September 2016

EAC extraction logfile from 14. February 2018, 14:09

Chico Hamilton & Paul Horn / Chico Hamilton With Paul Horn

Used drive : HL-DT-STRW/DVD_GCC-4244N Adapter: 1 ID: 0

Read mode : Secure
Utilize accurate stream : Yes
Defeat audio cache : Yes
Make use of C2 pointers : No

Read offset correction : 102
Overread into Lead-In and Lead-Out : No
Fill up missing offset samples with silence : Yes
Delete leading and trailing silent blocks : No
Null samples used in CRC calculations : Yes
Used interface : Native Win32 interface for Win NT & 2000
Gap handling : Appended to previous track

Used output format : User Defined Encoder
Selected bitrate : 1024 kBit/s
Quality : High
Add ID3 tag : No
Command line compressor : C:\Program Files (x86)\Exact Audio Copy\Flac\flac.exe
Additional command line options : -8 -e -p -V -T "ARTIST=%artist%" -T "TITLE=%title%" -T "ALBUM=%albumtitle%" -T "DATE=%year%" -T "TRACKNUMBER=%tracknr%" -T "GENRE=%genre%" -T "PERFORMER=%albuminterpret%" -T "COMPOSER=%composer%" %haslyrics%–tag-from-file=LYRICS="%lyricsfile%"%haslyrics% -T "ALBUMARTIST=%albumartist%" -T "DISCNUMBER=%cdnumber%" -T "TOTALDISCS=%totalcds%" -T "TOTALTRACKS=%numtracks%" -T "COMMENT=%comment%" %source% -o %dest%

TOC of the extracted CD

Track | Start | Length | Start sector | End sector
––––––––––––––––––––––––––––-
1 | 0:00.00 | 4:01.46 | 0 | 18120
2 | 4:01.46 | 3:43.69 | 18121 | 34914
3 | 7:45.40 | 4:42.45 | 34915 | 56109
4 | 12:28.10 | 2:19.00 | 56110 | 66534
5 | 14:47.10 | 2:58.67 | 66535 | 79951
6 | 17:46.02 | 3:51.62 | 79952 | 97338
7 | 21:37.64 | 3:01.39 | 97339 | 110952
8 | 24:39.28 | 7:32.09 | 110953 | 144861

Track 1

Filename D:\Chico Hamilton, Paul Horn - Chico Hamilton With Paul Horn (1963) [2010, P-Vine Records, PCD-20176] [FLAC]\01 - Porch Light.wav

Pre-gap length 0:00:02.00

Peak level 100.0 %
Extraction speed 1.2 X
Track quality 100.0 %
Test CRC AE0151F2
Copy CRC AE0151F2
Track not present in AccurateRip database
Copy OK

Track 2

Filename D:\Chico Hamilton, Paul Horn - Chico Hamilton With Paul Horn (1963) [2010, P-Vine Records, PCD-20176] [FLAC]\02 - Autumn Landscape.wav

Pre-gap length 0:00:01.18

Peak level 100.0 %
Extraction speed 1.4 X
Track quality 100.0 %
Test CRC 4C8AB23D
Copy CRC 4C8AB23D
Track not present in AccurateRip database
Copy OK

Track 3

Filename D:\Chico Hamilton, Paul Horn - Chico Hamilton With Paul Horn (1963) [2010, P-Vine Records, PCD-20176] [FLAC]\03 - Uyawda.wav

Pre-gap length 0:00:02.00

Peak level 100.0 %
Extraction speed 1.6 X
Track quality 100.0 %
Test CRC 89215893
Copy CRC 89215893
Track not present in AccurateRip database
Copy OK

Track 4

Filename D:\Chico Hamilton, Paul Horn - Chico Hamilton With Paul Horn (1963) [2010, P-Vine Records, PCD-20176] [FLAC]\04 - Lolly Pop.wav

Pre-gap length 0:00:01.35

Peak level 100.0 %
Extraction speed 1.5 X
Track quality 100.0 %
Test CRC 7E819307
Copy CRC 7E819307
Track not present in AccurateRip database
Copy OK

Track 5

Filename D:\Chico Hamilton, Paul Horn - Chico Hamilton With Paul Horn (1963) [2010, P-Vine Records, PCD-20176] [FLAC]\05 - Pluck It.wav

Pre-gap length 0:00:01.35

Peak level 100.0 %
Extraction speed 1.6 X
Track quality 100.0 %
Test CRC 1511811C
Copy CRC 1511811C
Track not present in AccurateRip database
Copy OK

Track 6

Filename D:\Chico Hamilton, Paul Horn - Chico Hamilton With Paul Horn (1963) [2010, P-Vine Records, PCD-20176] [FLAC]\06 - Katz Up.wav

Pre-gap length 0:00:01.64

Peak level 100.0 %
Extraction speed 1.8 X
Track quality 100.0 %
Test CRC E8392E33
Copy CRC E8392E33
Track not present in AccurateRip database
Copy OK

Track 7

Filename D:\Chico Hamilton, Paul Horn - Chico Hamilton With Paul Horn (1963) [2010, P-Vine Records, PCD-20176] [FLAC]\07 - Crazy Cats.wav

Pre-gap length 0:00:02.14

Peak level 95.5 %
Extraction speed 1.8 X
Track quality 100.0 %
Test CRC 0D11B439
Copy CRC 0D11B439
Track not present in AccurateRip database
Copy OK

Track 8

Filename D:\Chico Hamilton, Paul Horn - Chico Hamilton With Paul Horn (1963) [2010, P-Vine Records, PCD-20176] [FLAC]\08 - Lord Randell.wav

Pre-gap length 0:00:03.33

Peak level 100.0 %
Extraction speed 2.1 X
Track quality 100.0 %
Test CRC E52ED877
Copy CRC E52ED877
Track not present in AccurateRip database
Copy OK

None of the tracks are present in the AccurateRip database

No errors occurred

End of status report

–– CUETools DB Plugin V2.1.6

[CTDB TOCID: mz3DYzTnf7BLKgHPMmEdemOHMPM-] disk not present in database
Submit result: mz3DYzTnf7BLKgHPMmEdemOHMPM- has been uploaded

==== Log checksum 3F6754C32200B6A0A00627188FDE41DA73CF21A229CF7B74F3555FF63A11ECB8 ====

All thanks go to the lewisstrudel

More Music in My Blog
Follow My RSS Channel