Subcategories

Christian McBride & Inside Straight - Kind of Brown (2009)

Posted By: ruskaval
Christian McBride & Inside Straight - Kind of Brown (2009)

Christian McBride & Inside Straight - Kind of Brown (2009)
EAC rip (secure mode) | FLAC+CUE+LOG -> 341 Mb | MP3 @320 -> 145 Mb
Full Artwork @ 300 dpi (jpg) -> 23 Mb
© 2009 Mack Avenue / King Record | ICJ 565
Jazz / Post Bop / Bebop


Christian McBride & Inside Straight - Kind of Brown (2009)

One might assume that bassist Christian McBride's KIND OF BROWN would be a tribute to Ray Brown. In fact, this music bears a strong resemblance to the late-'60s to mid-'70s Blue Note recordings of the legendary Bobby Hutcherson-Harold Land quintet. A new discovery in vibraphonist Warren Wolf, Jr., teamed with veteran saxophonist Steve Wilson, the wonderful pianist Eric Reed, and drummer Carl Allen makes McBride's quintet Inside Straight one of the more melodically tuneful and harmonically focused contemporary ensembles now playing. McBride is almost an equal in this company, putting aside his furious note playing for a more democratic role in an extraordinarily balanced small combo. The similarities to the Hutcherson-Land group are unmistakable, from the tick-tock rhythm and melodic line similar to Hutch and Herbie Hancock's classic composition "Blow Up" on "Brother Mister" to the steady swinger "Rainbow Wheel" and "Pursuit of Peace," with its probing basslines. The athletic and quirky "Stick and Move" is hard-charging bop at its best with Reed leading. McBride's role as a leader is more pronounced on "Theme for Kareem," an ultra-tight, very hip tune that has potential standard written all over it.
Personnel: Steve Wilson (saxophone); Eric Scott Reed (piano); Warren Wolf, Jr. (vibraphone); Christian McBride (bass instrument); Carl Allen (drums).

tracklist:
01. Brother Mister
02. Theme for Kareem
03. Rainbow Wheel
04. Starbeam
05. Used 'Ta Could
06. The Shade of the Cedar Tree
07. Pursuit of Peace
08. Uncle James
09. Stick & Move
10. Where Are You?

Christian McBride & Inside Straight - Kind of Brown (2009)

Exact Audio Copy V0.99 prebeta 5 from 4. May 2009

EAC extraction logfile from 9. January 2010, 16:53

Christian McBride & Inside Straight / Kind Of Brown

Used drive : TSSTcorpCD/DVDW TS-H552L Adapter: 3 ID: 0

Read mode : Secure
Utilize accurate stream : Yes
Defeat audio cache : Yes
Make use of C2 pointers : No

Read offset correction : 6
Overread into Lead-In and Lead-Out : No
Fill up missing offset samples with silence : Yes
Delete leading and trailing silent blocks : No
Null samples used in CRC calculations : Yes
Used interface : Native Win32 interface for Win NT & 2000
Gap handling : Appended to previous track

Used output format : User Defined Encoder
Selected bitrate : 1024 kBit/s
Quality : High
Add ID3 tag : No
Command line compressor : C:\Program Files\FLAC\flac.exe
Additional command line options : -6 -V -T "ARTIST=%a" -T "TITLE=%t" -T "ALBUM=%g" -T "DATE=%y" -T "TRACKNUMBER=%n" -T "GENRE=%m" -T "COMMENT=EAC FLAC -6" %s


TOC of the extracted CD

Track | Start | Length | Start sector | End sector
––––––––––––––––––––––––––––-
1 | 0:00.00 | 4:54.25 | 0 | 22074
2 | 4:54.25 | 7:51.74 | 22075 | 57473
3 | 12:46.24 | 6:30.26 | 57474 | 86749
4 | 19:16.50 | 6:37.60 | 86750 | 116584
5 | 25:54.35 | 6:35.27 | 116585 | 146236
6 | 32:29.62 | 7:50.02 | 146237 | 181488
7 | 40:19.64 | 6:06.23 | 181489 | 208961
8 | 46:26.12 | 5:27.10 | 208962 | 233496
9 | 51:53.22 | 8:07.09 | 233497 | 270030
10 | 60:00.31 | 4:18.62 | 270031 | 289442


Track 1

Filename C:\Christian McBride & Inside Straight - Kind of Brown (2009)\01 - Brother Mister.wav

Pre-gap length 0:00:02.00

Peak level 87.0 %
Track quality 100.0 %
Test CRC 2F7F33C9
Copy CRC 2F7F33C9
Accurately ripped (confidence 7) [4B26CB9A]
Copy OK

Track 2

Filename C:\Christian McBride & Inside Straight - Kind of Brown (2009)\02 - Theme For Kareem.wav

Peak level 99.8 %
Track quality 100.0 %
Test CRC EAE416C1
Copy CRC EAE416C1
Accurately ripped (confidence 7) [220AAF22]
Copy OK

Track 3

Filename C:\Christian McBride & Inside Straight - Kind of Brown (2009)\03 - Rainbow Wheel.wav

Peak level 99.8 %
Track quality 100.0 %
Test CRC 80207CF4
Copy CRC 80207CF4
Accurately ripped (confidence 7) [4228015E]
Copy OK

Track 4

Filename C:\Christian McBride & Inside Straight - Kind of Brown (2009)\04 - Starbeam.wav

Peak level 94.1 %
Track quality 99.9 %
Test CRC 6D089DC5
Copy CRC 6D089DC5
Accurately ripped (confidence 7) [1F19D880]
Copy OK

Track 5

Filename C:\Christian McBride & Inside Straight - Kind of Brown (2009)\05 - Used 'Ta Could.wav

Peak level 92.0 %
Track quality 100.0 %
Test CRC B8BC77D8
Copy CRC B8BC77D8
Accurately ripped (confidence 7) [9764179E]
Copy OK

Track 6

Filename C:\Christian McBride & Inside Straight - Kind of Brown (2009)\06 - The Shade Of The Cedar Tree.wav

Peak level 97.0 %
Track quality 100.0 %
Test CRC 2441E540
Copy CRC 2441E540
Accurately ripped (confidence 7) [FDC1D3C6]
Copy OK

Track 7

Filename C:\Christian McBride & Inside Straight - Kind of Brown (2009)\07 - Pursuit Of Peace.wav

Peak level 99.8 %
Track quality 100.0 %
Test CRC D6FA9A35
Copy CRC D6FA9A35
Accurately ripped (confidence 7) [68A48E02]
Copy OK

Track 8

Filename C:\Christian McBride & Inside Straight - Kind of Brown (2009)\08 - Uncle James.wav

Peak level 72.8 %
Track quality 100.0 %
Test CRC AF4F04C2
Copy CRC AF4F04C2
Accurately ripped (confidence 7) [B51B984C]
Copy OK

Track 9

Filename C:\Christian McBride & Inside Straight - Kind of Brown (2009)\09 - Stick & Move.wav

Peak level 99.8 %
Track quality 99.9 %
Test CRC 1D3987D2
Copy CRC 1D3987D2
Accurately ripped (confidence 7) [EE04FCC4]
Copy OK

Track 10

Filename C:\Christian McBride & Inside Straight - Kind of Brown (2009)\10 - Where Are You .wav

Peak level 35.9 %
Track quality 100.0 %
Test CRC B4829EC0
Copy CRC B4829EC0
Accurately ripped (confidence 6) [B917A9BA]
Copy OK


All tracks accurately ripped

No errors occurred

End of status report

Please don't post the links and passes in your comments…

Linkz