Christian Willisohn - Hold On (2005, Stockfisch # SFR 357.4038.2) {Hybrid-Direct-Cut-SACD // EAC rip} [RE-UP]

Posted By: luckburz
Christian Willisohn - Hold On (2005, Stockfisch # SFR 357.4038.2) {Hybrid-Direct-Cut-SACD // EAC rip} [RE-UP]

Christian Willisohn - Hold On
EAC+LOG+CUE | FLAC: 254 MB | Full Artwork | 5% Recovery Info
Label/Cat#: Stockfisch Records # SFR 357.4038.2 | Country/Year: Germany 2005
Genre: Blues | Style: Contemporary Blues

MD5 [X] CUE [X] LOG [X] INFO TEXT [X] ARTWORK [X]

my rip [X] not my rip [ ]

Christian Willisohn - Hold On (2005, Stockfisch # SFR 357.4038.2) {Hybrid-Direct-Cut-SACD // EAC rip} [RE-UP]


Exact Audio Copy V1.0 beta 3 from 29. August 2011

EAC extraction logfile from 9. October 2012, 22:05

Christian Willisohn / Hold On

Used drive : PIONEER BD-RW BDR-206 Adapter: 0 ID: 2

Read mode : Secure
Utilize accurate stream : Yes
Defeat audio cache : Yes
Make use of C2 pointers : No

Read offset correction : 667
Overread into Lead-In and Lead-Out : No
Fill up missing offset samples with silence : Yes
Delete leading and trailing silent blocks : No
Null samples used in CRC calculations : Yes
Used interface : Native Win32 interface for Win NT & 2000

Used output format : User Defined Encoder
Selected bitrate : 1024 kBit/s
Quality : High
Add ID3 tag : Yes
Command line compressor : C:\Program Files\FLAC\flac.exe
Additional command line options : -5 -T "Artist=%artist%" -T "Title=%title%" -T "Album=%albumtitle%" -T "Date=%year%" -T "Tracknumber=%tracknr%" -T "Genre=%genre%" %source% -o %dest%


TOC of the extracted CD

Track | Start | Length | Start sector | End sector
––––––––––––––––––––––––––––-
1 | 0:00.00 | 3:43.41 | 0 | 16765
2 | 3:43.41 | 3:13.16 | 16766 | 31256
3 | 6:56.57 | 3:32.68 | 31257 | 47224
4 | 10:29.50 | 4:34.66 | 47225 | 67840
5 | 15:04.41 | 6:06.51 | 67841 | 95341
6 | 21:11.17 | 5:21.34 | 95342 | 119450
7 | 26:32.51 | 5:33.31 | 119451 | 144456
8 | 32:06.07 | 2:43.65 | 144457 | 156746
9 | 34:49.72 | 2:58.58 | 156747 | 170154
10 | 37:48.55 | 5:10.57 | 170155 | 193461
11 | 42:59.37 | 4:40.62 | 193462 | 214523


Range status and errors

Selected range

Filename F:\=== VINYL RIPS ===\=== EAC===\X FRESH RIP\Christian Willisohn - Hold On.wav

Peak level 94.4 %
Extraction speed 1.7 X
Range quality 100.0 %
Test CRC 1817B832
Copy CRC 1817B832
Copy OK

No errors occurred


AccurateRip summary

Track 1 accurately ripped (confidence 2) [DA8D6F5A] (AR v2)
Track 2 accurately ripped (confidence 2) [E8D3AA06] (AR v2)
Track 3 accurately ripped (confidence 2) [1C855465] (AR v2)
Track 4 accurately ripped (confidence 2) [E80A7568] (AR v2)
Track 5 accurately ripped (confidence 2) [668DEB14] (AR v2)
Track 6 accurately ripped (confidence 2) [4119161B] (AR v2)
Track 7 accurately ripped (confidence 2) [55F2EF07] (AR v2)
Track 8 accurately ripped (confidence 2) [344D2501] (AR v2)
Track 9 accurately ripped (confidence 2) [3916DB33] (AR v2)
Track 10 accurately ripped (confidence 2) [3A91F3D5] (AR v2)
Track 11 accurately ripped (confidence 2) [56A18F67] (AR v2)

All tracks accurately ripped

End of status report

–– CUETools DB Plugin V2.1.3

[CTDB TOCID: VFe2x2wxSzUFuvIIDXjvmBOYkfE-] found, Submit result: VFe2x2wxSzUFuvIIDXjvmBOYkfE- has been confirmed
[e6c6ed34] (6/7) Accurately ripped
[6f608662] (1/7) No match


==== Log checksum 632862E9FB924FDB65794BB00F7710AB31BBA54B0F9EFCE3D39DCE04231D16F9 ====

foobar2000 1.1.14a / Dynamic Range Meter 1.1.1
log date: 2012-12-17 20:36:11

––––––––––––––––––––––––––––––––––––––––
Analyzed: 'Christian Willisohn" / HOLD ON
––––––––––––––––––––––––––––––––––––––––

DR Peak RMS Duration Track
––––––––––––––––––––––––––––––––––––––––
DR13 -2.04 dB -17.17 dB 3:44 01-Hold On, I´m Waiting For You
DR14 -0.19 dB -16.75 dB 3:13 02-Little Angel
DR14 -0.45 dB -17.18 dB 3:33 03-No More Tears In Vain
DR13 -1.07 dB -18.29 dB 4:35 04-Heartbroken Man
DR13 -1.45 dB -19.85 dB 6:07 05-Caruso
DR14 -1.74 dB -18.42 dB 5:21 06-Black Day
DR15 -0.01 dB -19.04 dB 5:33 07-Blues In My Bottle
DR12 -1.93 dB -16.18 dB 2:44 08-Have I Told You Lately
DR13 -0.62 dB -15.85 dB 2:59 09-Little Fish
DR15 -0.21 dB -19.96 dB 5:11 10-The Man In Your Life
DR15 -0.68 dB -19.33 dB 4:41 11-Blues On The World
––––––––––––––––––––––––––––––––––––––––

Number of tracks: 11
Official DR value: DR14

Samplerate: 88200 Hz
Channels: 2
Bits per sample: 24
Bitrate: 2299 kbps
Codec: FLAC
================================================================================



CD Info:

Christian Willisohn - Hold On

Label: Stockfisch Records
Catalog#: SFR 357.4038.2
Format: Hybrid-SACD, Album, Stereo, Multichannel
Country: Germany
Released: 2005
Genre: Blues

Tracklist:

1 - Hold On,I'm Waiting For You 3:44
2 - Little Angel 3:13
3 - No More Tears In Vain 3:33
4 - Heartbroken Man 4:35
5 - Caruso 6:07
6 - Black Day 5:21
7 - Blues In My Bottle 5:33
8 - Have I Told You Lately 2:44
9 - Little Fish 2:59
10 - The Man In Your Life 5:11
11 - Blues On The World 4:41


On the Super Audio CD (SACD) the sound is recorded in DSD (Direct Stream Digital) format. The sampling frequency (2.8334 MHz) is 64 times that of a traditional CD. Furthermore, DSD uses 1-bit quantization. With the aid of this technology an even broader frequenzy range (up to 100 kHz) and even greater dynamics (120dB) can be achieved over the entire useful audio range.

For this DIRECT-CUT-SUPER-AUDIO-CD with Gergely Bogányi we used our SADiE DSD8 system for the recording, processing and mastering. The signal from the microphones is mixed to stereo in the analogue domain, converted to DSD with the emmLABs ADC8 MkIV and recorded as DSD signal to the SADiE system. This recording is maintained in DSD format throughout the processing stages. The end result is then obtained in the SADiE DSD8 - the "cutting master" (AIT tape) - which is later transferred directly to a SACD glass master in the pressing plant.

This DIRECT-CUT-SUPER-AUDIO-CD will enable you to hear the true DSD sound of the FAZIOLI F 308 grand piano - pure and pristine. The hybrid layer which guarantees downward compatibility contains the 16-bit PCM stereo program derived from the DSD mix.


Produktinfo
Auf der schottischen Insel Crear entdeckte der geniale Blues-Barde Christian Willisohn einen Konzertsaal der besonderen Art. Sofort orderte er das Aufnahme-Equipment von Stockfisch-Records für beeindruckende Direct-Cut-SACD-Aufnahmen in einer außergewöhnlichen akustischen Umgebung. Klang-Puristen finden Willisohn (Piano, Gesang) solo auf den Stereo- und Multichannel-Layern in DSD-Qualität. Die CD-Version auf dieser Hybrid-SACD überrascht. Christian Willisohn hat sechs befreundete Musiker ins Studio eingeladen, die seine schottische Originalaufnahme mit Drums, Bass, Gitarre, Saxophon und Englischhorn ergänzen.

Pressestimmen
C. Dick in Audio 8 / 05: "Bei der beseelten Session in einem Künstlertreff der schottischen Westhighlands lässt Christian Willisohn seine Stimmbänder sonor erzittern und entlockt dem Piano prägnante Töne. Ausdrucksstark und körperhaft lügen sich Saxofon, Gitarre, Bass und Drums in das überaus luftige, raumgreifende, dynamische und aus- gewogene Klangbild ein." C. Barnbeck in Stereo 8 / 05: "Eine tadellose und technisch sehr präzise SACD, die dank ihres hervorragenden Klangs nicht nur audiophile Kenner beeindruckt, sondern auch musikalisch einiges zu bieten hat." jpc.de

Within a great session at an scottish artist location sang Christian Willisohn very impulsive and played a very concisely piano. Expressive join in sax, guitar, bass and drums into a very dynamic and balanced sound characteristics. Super music & very good stereo sound but only voice and piano are on the SACD layer available, to listen to all instruments you have to switch into the CD layer. sa-cd.net

Christian Willisohn - Hold On (2005, Stockfisch # SFR 357.4038.2) {Hybrid-Direct-Cut-SACD // EAC rip} [RE-UP]


all of my uploads in my blog

===