Subcategories

Christine Jensen Jazz Orchestra - Habitat (2013)

Posted By: Domestos
Christine Jensen Jazz Orchestra - Habitat (2013)

Christine Jensen Jazz Orchestra - Habitat (2013)
EAC Rip | FLAC (tracks+.cue, log) ~ 344.90 Mb | 66:55 | Covers
Modern Creative | Label: Justin Time Records - JTR 8583-2

It may have been the title of her last album—Treelines, Christine Jensen's first large ensemble recording—but there was no song of that name on the 2010 Justin Time release. Instead, it's the lead-off to Habitat, Jensen's second album with her Jazz Orchestra, a commissioned work for the University of Nebraska-Lincoln Jazz Orchestra, its director, Dr. Paul Haar, looking for the Canadian saxophonist/composer to continue the strong work begun on Treelines.

And why not? Treelines may have been the Montreal, Canada-based saxophonist's first large ensemble recording, but over the past 15 years she has gradually emerged as not just a saxophonist of note—her 2013 Festival International de Jazz de Montréal quintet set with sister/trumpeter Ingrid Jensen made that crystal clear—but a composer of increasing importance also, and not just on the Canadian scene. Jensen has, in relatively short order, evolved into a world class writer capable of going head-to-head with any large ensemble composer/bandleader on the scene today.
Bringing back a good percentage of the players on Treelines for Habitat's 17-20 piece orchestra, Jensen continues to pursue the longer-form, often episodic writing that defined the previous record while ensuring a bevy of impressive soloists to make equally clear that Montréal remains one of Canada's most creative jazz locales alongside Vancouver and Toronto. Some of the names are familiar to any who've been following the scene, like husband/saxophonist Joel Miller, who impressively shares the solo space with trombonist Jean-Nicolas Trottier on "Tumbledown," which begins with the sound of a lone clarinet, soon doubled by pianist John Roney (replacing Treelines' Steve Amirault). Sweeping contrapuntal lines define an introduction that leads to a chordal foundation reflective of the composition's inspiration—two tours in Haiti in 2007-08, prior to the tragic 2010 earthquake that decimated the small country—and a compositional complexity that mirrors what Jensen describes, in the liners, as "the beautiful and complicated city of Port-au-Prince." Beyond their own individual spots, Trottier and Miller ultimately solo in tandem, supported only by drummer Richard Irwin's combination of firm pulse and responsive support. It's just one of many compelling moments on Habitat.
While sister Ingrid solos on half of Habitat's six compositions, Christine—sticking solely with soprano for this date, rather than the alto saxophone that's usually her main axe—remains an ensemble player until the album-closing, waltz-time "Sweet Adelphi," an ambling tune that doesn't feature the sisters soloing together until its closing couple of minutes. Still, beyond each sister's individual instrumental prowess, it's a brief but more than sufficient moment that spotlights the remarkable simpatico shared by these two siblings. Ingrid has managed to shape a fine career in New York, in particular as a member of Grammy Award-winning Maria Schneider's own large ensemble and Terri Lyne Carrington's Mosaic (Concord, 2011) project, but a long overdue follow-up to her own superb At Sea (ArtistShare, 2005) remains sadly MIA.
Meanwhile, as Christine Jensen continues to raise her game as a writer—moving from the smaller ensemble work of Look Left (Effendi, 2006) to her more ambitious Treelines and, now, even more mature Habitat—a voice once redolent of influential Canadian expat Kenny Wheeler's melancholic lyricism, Maria Schneider's more joyful exuberance of and Gil Evans' rich colorations continues to exert itself more firmly. It's an inevitable evolution clearly recognized at home, with Habitat recently repeating Jensen's 2010 Juno Award win for Jazz Album of the Year at the 2014 award ceremony.
With the March, 2014 American release of Habitat, it would seem that the high regard Christine Jensen has long held in her home country is finally making its way across the border, and not a moment too soon. Her small but impressive discography—and, in particular, with the back-to-back critical acclaim for the stellar Treelines and Habitat—it's time that Jensen garnered the same American acclaim as her New York-based sister. Sometimes you don't have to move Stateside; sometimes, all you need is the patience, the devotion to craft and creativity, and the kind of impressive forward motion demonstrated consistently by Jensen since she first appeared on Ingrid's early recordings in the mid-to-late '90s, followed by her own releases starting with Collage (Effendi, 2000). With a career path that, from Collage to Treelines, moved in a corresponding upward direction, with the even more impressive Habitat, Jensen's trajectory has just taken a quantum leap forward. ~ Review by John Kelman

Christine Jensen - conductor, soprano saxophone (solo on #6)
Donny Kennedy - alto saxophone (solo on #1), soprano saxophone, flute
Erik Hove - alto saxophone (solo on #5), flute
Joel Miller - tenor saxophone (solos on #2,5), clarinet
Chet Doxas - tenor saxophone (solo on #4), clarinet
Samuel Blais - baritone saxophone (solo on #3), clarinet
David Grott, Jean-Nicolas Trottier (solos on #2), Muhammed Abdul Al-Khabyyr - trombone
Bob Ellis (#1,3-5), Jean Sebastion Vachon (#2,6) - bass trombone
Dave Martin - tuba, euphonium (#1-4)
Jocelyn Couture, Bill Mahar, Dave Mossing, Aron Doyle, Ingrid Jensen (#1,3,5,6, solos on #1,5,6) - trumpet
John Roney - piano (solo on #5)
Ken Bibace - electric guitar
Fraser Hollins - upright bass (solo on #5)
Richard Irwin - drums (solos on #3,5)
Dave Gossage - native flute (#4)

Recorded at Studio Piccolo, Montreal on May 11-12, 2013.

Track List:
01. Treelines (11:39)
02. Tumbledown (10:28)
03. Blue Yonder (7:53)
04. Nishiyuu (14:57)
05. Intersection (11:34)
06. Sweet Adelphi (10:24)

Christine Jensen Jazz Orchestra - Habitat (2013)

Exact Audio Copy V1.3 from 2. September 2016

EAC extraction logfile from 13. February 2018, 18:42

Christine Jensen Jazz Orchestra / Habitat

Used drive : ATAPI DVD A DH16AAL Adapter: 1 ID: 0

Read mode : Secure
Utilize accurate stream : Yes
Defeat audio cache : Yes
Make use of C2 pointers : No

Read offset correction : 6
Overread into Lead-In and Lead-Out : No
Fill up missing offset samples with silence : Yes
Delete leading and trailing silent blocks : No
Null samples used in CRC calculations : Yes
Used interface : Native Win32 interface for Win NT & 2000
Gap handling : Appended to previous track

Used output format : User Defined Encoder
Selected bitrate : 1024 kBit/s
Quality : High
Add ID3 tag : No
Command line compressor : C:\Program Files (x86)\Exact Audio Copy\Flac\flac.exe
Additional command line options : -8 -e -p -V -T "ARTIST=%artist%" -T "TITLE=%title%" -T "ALBUM=%albumtitle%" -T "DATE=%year%" -T "TRACKNUMBER=%tracknr%" -T "GENRE=%genre%" -T "PERFORMER=%albuminterpret%" -T "COMPOSER=%composer%" %haslyrics%–tag-from-file=LYRICS="%lyricsfile%"%haslyrics% -T "ALBUMARTIST=%albumartist%" -T "DISCNUMBER=%cdnumber%" -T "TOTALDISCS=%totalcds%" -T "TOTALTRACKS=%numtracks%" -T "COMMENT=%comment%" %source% -o %dest%

TOC of the extracted CD

Track | Start | Length | Start sector | End sector
––––––––––––––––––––––––––––-
1 | 0:00.00 | 11:38.73 | 0 | 52422
2 | 11:38.73 | 10:28.05 | 52423 | 99527
3 | 22:07.03 | 7:52.48 | 99528 | 134975
4 | 29:59.51 | 14:57.27 | 134976 | 202277
5 | 44:57.03 | 11:33.74 | 202278 | 254326
6 | 56:31.02 | 10:23.46 | 254327 | 301097

Track 1

Filename C:\Zelou\EAC Rips\Christine Jensen Jazz Orchestra - Habitat (2013) [CD FLAC] {JTR8583-2}\01 - Treelines.wav

Pre-gap length 0:00:02.00

Peak level 98.2 %
Extraction speed 2.2 X
Track quality 100.0 %
Test CRC 5803F037
Copy CRC 5803F037
Accurately ripped (confidence 10) [AB651EB2] (AR v2)
Copy OK

Track 2

Filename C:\Zelou\EAC Rips\Christine Jensen Jazz Orchestra - Habitat (2013) [CD FLAC] {JTR8583-2}\02 - Tumbledown.wav

Peak level 97.1 %
Extraction speed 2.6 X
Track quality 100.0 %
Test CRC C9C50634
Copy CRC C9C50634
Accurately ripped (confidence 10) [AC339F40] (AR v2)
Copy OK

Track 3

Filename C:\Zelou\EAC Rips\Christine Jensen Jazz Orchestra - Habitat (2013) [CD FLAC] {JTR8583-2}\03 - Blue Yonder.wav

Peak level 97.9 %
Extraction speed 2.9 X
Track quality 100.0 %
Test CRC 8F1B381A
Copy CRC 8F1B381A
Accurately ripped (confidence 10) [FC92CF2E] (AR v2)
Copy OK

Track 4

Filename C:\Zelou\EAC Rips\Christine Jensen Jazz Orchestra - Habitat (2013) [CD FLAC] {JTR8583-2}\04 - Nishiyuu.wav

Peak level 99.2 %
Extraction speed 3.1 X
Track quality 99.9 %
Test CRC 5E873E2A
Copy CRC 5E873E2A
Accurately ripped (confidence 10) [8DAA11A9] (AR v2)
Copy OK

Track 5

Filename C:\Zelou\EAC Rips\Christine Jensen Jazz Orchestra - Habitat (2013) [CD FLAC] {JTR8583-2}\05 - Intersection.wav

Peak level 96.9 %
Extraction speed 3.8 X
Track quality 100.0 %
Test CRC 5E42C27C
Copy CRC 5E42C27C
Accurately ripped (confidence 10) [DEDB2B35] (AR v2)
Copy OK

Track 6

Filename C:\Zelou\EAC Rips\Christine Jensen Jazz Orchestra - Habitat (2013) [CD FLAC] {JTR8583-2}\06 - Sweet Adelphi.wav

Pre-gap length 0:00:01.60

Peak level 96.7 %
Extraction speed 4.0 X
Track quality 100.0 %
Test CRC 9FC5D820
Copy CRC 9FC5D820
Accurately ripped (confidence 10) [BA649ACE] (AR v2)
Copy OK

All tracks accurately ripped

No errors occurred

End of status report

–– CUETools DB Plugin V2.1.6

[CTDB TOCID: Du8pznJ8fU6Q2AEuZaKEH7nFdDw-] found
Submit result: Du8pznJ8fU6Q2AEuZaKEH7nFdDw- has been confirmed
Track | CTDB Status
1 | (8/8) Accurately ripped
2 | (8/8) Accurately ripped
3 | (8/8) Accurately ripped
4 | (8/8) Accurately ripped
5 | (8/8) Accurately ripped
6 | (8/8) Accurately ripped

==== Log checksum D4A7981603DE83B502A42CD58FD2713C2698643A6DD12A72ABC35ABC06081848 ====

All thanks go to the Zelou

More Music in My Blog
Follow My RSS Channel