Subcategories

Christoph Graupner - Orchestral Works Vol. 2 (2004)

Posted By: luckburz
Christoph Graupner - Orchestral Works Vol. 2 (2004)

Christoph Graupner - Orchestral Works Vol. 2
Nova Stravaganza - Siegbert Rampe
EAC+LOG+CUE | FLAC: 251 MB | Full Artwork | 5% Recovery Info
Label/Cat#: MDG # 341 1252-2 | Country/Year: Germany 2004
Genre: Classical | Style: Baroque

MD5 [X] CUE [X] LOG [X] INFO TEXT [X] ARTWORK [X]

selfrip [] not my rip [X]

Christoph Graupner - Orchestral Works Vol. 2 (2004)


Exact Audio Copy V1.0 beta 2 from 29. April 2011

EAC extraction logfile from 30. June 2012, 21:01

Nova Stravaganza, Siegbert Rampe / Christoph Graupner - Orchestral Works Vol. 2

Used drive : HL-DT-STDVDRAM GH20NS10 Adapter: 4 ID: 0

Read mode : Secure
Utilize accurate stream : Yes
Defeat audio cache : Yes
Make use of C2 pointers : No

Read offset correction : 667
Overread into Lead-In and Lead-Out : No
Fill up missing offset samples with silence : Yes
Delete leading and trailing silent blocks : No
Null samples used in CRC calculations : Yes
Used interface : Installed external ASPI interface
Gap handling : Appended to previous track

Used output format : User Defined Encoder
Selected bitrate : 896 kBit/s
Quality : High
Add ID3 tag : No
Command line compressor : C:\Program Files (x86)\Exact Audio Copy\Flac\flac.exe
Additional command line options : -8 -V -T "ARTIST=%artist%" -T "TITLE=%title%" -T "ALBUM=%albumtitle%" -T "DATE=%year%" -T "TRACKNUMBER=%tracknr%" -T "TOTALTRACKS=%numtracks%" -T "GENRE=%genre%" -T "ALBUMARTIST=%albumartist%" -T "ALBUM ARTIST=%albumartist%


TOC of the extracted CD

Track | Start | Length | Start sector | End sector
––––––––––––––––––––––––––––-
1 | 0:00.00 | 11:02.67 | 0 | 49716
2 | 11:02.67 | 4:58.63 | 49717 | 72129
3 | 16:01.55 | 3:41.72 | 72130 | 88776
4 | 19:43.52 | 6:28.43 | 88777 | 117919
5 | 26:12.20 | 1:10.50 | 117920 | 123219
6 | 27:22.70 | 5:15.27 | 123220 | 146871
7 | 32:38.22 | 2:09.08 | 146872 | 156554
8 | 34:47.30 | 2:51.55 | 156555 | 169434
9 | 37:39.10 | 2:04.17 | 169435 | 178751
10 | 39:43.27 | 4:19.03 | 178752 | 198179
11 | 44:02.30 | 4:05.02 | 198180 | 216556
12 | 48:07.32 | 4:15.33 | 216557 | 235714
13 | 52:22.65 | 2:43.15 | 235715 | 247954


Track 1

Filename Z:\Christoph Graupner - Orchestral Works Vol. 2 (Nova Stravaganza, Siegbert Rampe) (2004) [FLAC] {mDG 341 1252-2}\01 - Ouverture in F major GWV 451; I. Ouverture.wav

Pre-gap length 0:00:02.00

Peak level 74.4 %
Extraction speed 5.7 X
Track quality 100.0 %
Test CRC 7B9352B0
Copy CRC 7B9352B0
Accurately ripped (confidence 2) [051CD709] (AR v1)
Copy OK

Track 2

Filename Z:\Christoph Graupner - Orchestral Works Vol. 2 (Nova Stravaganza, Siegbert Rampe) (2004) [FLAC] {mDG 341 1252-2}\02 - II. Air.wav

Peak level 82.9 %
Extraction speed 6.4 X
Track quality 100.0 %
Test CRC 44C47320
Copy CRC 44C47320
Accurately ripped (confidence 2) [3B0E8586] (AR v1)
Copy OK

Track 3

Filename Z:\Christoph Graupner - Orchestral Works Vol. 2 (Nova Stravaganza, Siegbert Rampe) (2004) [FLAC] {mDG 341 1252-2}\03 - III. Sarabande.wav

Peak level 46.0 %
Extraction speed 6.3 X
Track quality 100.0 %
Test CRC B80F96A9
Copy CRC B80F96A9
Accurately ripped (confidence 2) [B464239B] (AR v1)
Copy OK

Track 4

Filename Z:\Christoph Graupner - Orchestral Works Vol. 2 (Nova Stravaganza, Siegbert Rampe) (2004) [FLAC] {mDG 341 1252-2}\04 - IV. Menuet 1-4.wav

Peak level 71.8 %
Extraction speed 7.4 X
Track quality 100.0 %
Test CRC 1B6CDA3D
Copy CRC 1B6CDA3D
Accurately ripped (confidence 2) [D9DA8A0F] (AR v1)
Copy OK

Track 5

Filename Z:\Christoph Graupner - Orchestral Works Vol. 2 (Nova Stravaganza, Siegbert Rampe) (2004) [FLAC] {mDG 341 1252-2}\05 - V. Marche.wav

Peak level 90.9 %
Extraction speed 5.1 X
Track quality 100.0 %
Test CRC 0A0EBDA3
Copy CRC 0A0EBDA3
Accurately ripped (confidence 2) [0AE1B82D] (AR v1)
Copy OK

Track 6

Filename Z:\Christoph Graupner - Orchestral Works Vol. 2 (Nova Stravaganza, Siegbert Rampe) (2004) [FLAC] {mDG 341 1252-2}\06 - VI. Chaconne.wav

Peak level 82.4 %
Extraction speed 6.6 X
Track quality 99.9 %
Test CRC 3E34FE5D
Copy CRC 3E34FE5D
Accurately ripped (confidence 2) [B6960510] (AR v1)
Copy OK

Track 7

Filename Z:\Christoph Graupner - Orchestral Works Vol. 2 (Nova Stravaganza, Siegbert Rampe) (2004) [FLAC] {mDG 341 1252-2}\07 - Trio in C minor GWV 203; I. Vivace.wav

Pre-gap length 0:00:07.02

Peak level 26.2 %
Extraction speed 5.0 X
Track quality 99.9 %
Test CRC CBFA61F2
Copy CRC CBFA61F2
Accurately ripped (confidence 2) [51937809] (AR v1)
Copy OK

Track 8

Filename Z:\Christoph Graupner - Orchestral Works Vol. 2 (Nova Stravaganza, Siegbert Rampe) (2004) [FLAC] {mDG 341 1252-2}\08 - II. Largo.wav

Peak level 19.1 %
Extraction speed 7.6 X
Track quality 100.0 %
Test CRC 0D8EE584
Copy CRC 0D8EE584
Accurately ripped (confidence 2) [E9A2B57C] (AR v1)
Copy OK

Track 9

Filename Z:\Christoph Graupner - Orchestral Works Vol. 2 (Nova Stravaganza, Siegbert Rampe) (2004) [FLAC] {mDG 341 1252-2}\09 - III. Allegro.wav

Peak level 29.6 %
Extraction speed 7.2 X
Track quality 100.0 %
Test CRC 8A35E4BA
Copy CRC 8A35E4BA
Accurately ripped (confidence 2) [8C5C5671] (AR v1)
Copy OK

Track 10

Filename Z:\Christoph Graupner - Orchestral Works Vol. 2 (Nova Stravaganza, Siegbert Rampe) (2004) [FLAC] {mDG 341 1252-2}\10 - Sinfonia in F major GWV 571; I. Largo - Allegro - Largo.wav

Pre-gap length 0:00:05.42

Peak level 67.9 %
Extraction speed 8.5 X
Track quality 100.0 %
Test CRC E40E2873
Copy CRC E40E2873
Accurately ripped (confidence 2) [0CE5ED18] (AR v1)
Copy OK

Track 11

Filename Z:\Christoph Graupner - Orchestral Works Vol. 2 (Nova Stravaganza, Siegbert Rampe) (2004) [FLAC] {mDG 341 1252-2}\11 - II. Allegro moderato.wav

Peak level 77.7 %
Extraction speed 7.0 X
Track quality 99.9 %
Test CRC 89DBADCA
Copy CRC 89DBADCA
Accurately ripped (confidence 2) [68C1B9DB] (AR v1)
Copy OK

Track 12

Filename Z:\Christoph Graupner - Orchestral Works Vol. 2 (Nova Stravaganza, Siegbert Rampe) (2004) [FLAC] {mDG 341 1252-2}\12 - III. Largo.wav

Peak level 36.8 %
Extraction speed 8.9 X
Track quality 100.0 %
Test CRC 779F7966
Copy CRC 779F7966
Accurately ripped (confidence 2) [6A8CFF4C] (AR v1)
Copy OK

Track 13

Filename Z:\Christoph Graupner - Orchestral Works Vol. 2 (Nova Stravaganza, Siegbert Rampe) (2004) [FLAC] {mDG 341 1252-2}\13 - IV. Allegro.wav

Peak level 64.7 %
Extraction speed 8.4 X
Track quality 100.0 %
Test CRC A923F571
Copy CRC A923F571
Accurately ripped (confidence 2) [8EC159B7] (AR v1)
Copy OK


All tracks accurately ripped

No errors occurred

End of status report

==== Log checksum D7648BCA13DADE9BEBA0CF3A2B5BCAB86D371BD47E426D5E0FA669F0EE00412F ====

foobar2000 1.1.14a / Dynamic Range Meter 1.1.1
log date: 2012-09-19 16:19:21

––––––––––––––––––––––––––––––––––––––––
Analyzed: Nova Stravaganza, Siegbert Rampe / Christoph Graupner - Orchestral Works Vol. 2
––––––––––––––––––––––––––––––––––––––––

DR Peak RMS Duration Track
––––––––––––––––––––––––––––––––––––––––
DR12 -2.56 dB -18.60 dB 11:03 01-Ouverture in F major GWV 451; I. Ouverture
DR12 -1.63 dB -18.46 dB 4:59 02-II. Air
DR11 -6.73 dB -22.08 dB 3:42 03-III. Sarabande
DR13 -2.87 dB -19.72 dB 6:29 04-IV. Menuet 1-4
DR11 -0.82 dB -14.30 dB 1:11 05-V. Marche
DR14 -1.68 dB -20.26 dB 5:15 06-VI. Chaconne
DR12 -11.62 dB -26.87 dB 2:09 07-Trio in C minor GWV 203; I. Vivace
DR12 -14.35 dB -29.70 dB 2:52 08-II. Largo
DR12 -10.57 dB -27.31 dB 2:04 09-III. Allegro
DR12 -3.36 dB -19.51 dB 4:19 10-Sinfonia in F major GWV 571; I. Largo - Allegro - Largo
DR13 -2.19 dB -18.97 dB 4:05 11-II. Allegro moderato
DR11 -8.67 dB -23.57 dB 4:15 12-III. Largo
DR14 -3.78 dB -21.26 dB 2:43 13-IV. Allegro
––––––––––––––––––––––––––––––––––––––––

Number of tracks: 13
Official DR value: DR12

Samplerate: 44100 Hz
Channels: 2
Bits per sample: 16
Bitrate: 578 kbps
Codec: FLAC
================================================================================



CD Info:

Christoph Graupner (1683-1760) - Orchestral Works Vol. 2

Nova Straganza (on period instruments)
Siegbert Rampe - direction from the hapsichord

Label: MDG
Series: Gold
Catalog#: 341 1252-2
Format: CD, Album
Country: Germany
Released: 2004
Genre: Classical

Tracklist:

01-06 Overture in F GWV 451 32:33
07-09 Trio GWV 203 6:59
10-13 Sinfonia in F GWVC 571 15:23

Christoph Graupner - Orchestral Works Vol. 2 (2004)


Disc reviews Johan van Veen "MUSICWEB""
…This recording impressively proves that Graupner isn't just a 'minor master' of the 18th century in Germany, and more than 'a contemporary of Bach and Telemann'. He was a very distinguished composer whose works considerably add to the picture of musical styles and compositional developments in Germany in the period from about 1725 to 1760. The playing of Nova Stravaganza is outstanding, and does full justice to the brilliance of these scores. The solo parts are all superbly played, and the ensemble playing is impeccable. This release shows a great zest on the part of everyone involved. It must have been a great privilege to play this fine music for the first time ever. One can just hope that more will follow, and that others may be encouraged to perform more of Graupner's output which is awaiting to be rediscovered in the archives in Darmstadt.

Der im sächsischen Kirchberg im Jahre 1683 geborene Christoph Graupner gehört zu den Komponisten, die in Folge der Musikgeschichtsschreibung des 19. Jahrhunderts, die vor allem Heroengeschichte war, vollkommen untergingen – angesichts der Zeitgenossen Johann Sebastian Bach oder Georg Friedrich Händel. Wenig ist allgemein bekannt über den Komponisten, der beinahe das Amt des Thomaskantors als ‘Rivale’ Bachs übertragen bekommen hätte – wäre da nicht sein Arbeitgeber, der Landgraf von Hessen-Darmstadt gewesen, der Graupner unbedingt weiterhin in seinen Diensten haben wollte. Wieso wollte dieser wohl seinen Hofkapellmeister nicht nach Leipzig ziehen lassen? Wahrscheinlich weil Graupner ein großartiger Komponist war, der eine ganz eigene Musiksprache entwickelte.

Extravagante Klänge – Nova Stravaganza

Das Ensemble Nova Stravaganza, benannt nach den Violinkonzerten Vivaldis, die dieser unter dem Opus 4 zusammenfasste, legt nun eine zweite Aufnahme mit instrumentalen Ensemblestücken Graupners vor, nachdem die erste CD mit einer großen Menge Lob und internationalen Preisen überhäuft wurde. Auch wenn sich Kompositionen von Ensemblemusik für Graupner erst relativ spät nachweisen lassen – so etwa um 1730 – sind diese Werke doch Zeugnisse der individuellen Meisterschaft des Darmstädter Hofkapellmeisters. Denn anders als seine Zeitgenossen verband Graupner französische und italienische Einflüsse zu einer Tonsprache, die ihren Ausgangspunkt von kleinsten motivischen Zellen nimmt, die im Verlauf eines Satzes von den verschiedenen Instrumentengruppen aufgegriffen werden. Diese spezifische Kompositionstechnik wurde – wenn man sich überhaupt mal wissenschaftlich mit dem Komponisten auseinander setzte – Grundlage für Ressentiments und Fehleinschätzungen.

Tatsächlich war Christoph Graupner ein begnadeter Instrumentationskünstler, dessen Ensemblemusik von der reichhaltigen Palette instrumentaler Kombinationsmöglichkeiten ein beredtes Zeugnis ablegt. So beispielsweise die hier aufgenommene ‘Ouvertüre’ in F-Dur (GWV 451), die neben der Traversflöte, zwei Violinen, Viola und Basso continuo eine Viola d´amore tenore, zwei Chalumeau und ein Horn erfordert. Diese Zusammenstellung ergibt nun eine ganz individuelle Klangkombination. Die beiden Chalumeau fügen dem Ensemble eine Komponente bei, die einerseits durch den näselnden Ton etwas ländlich wirkt, andererseits jedoch durch eben diesen zu der weichen Grundtönung des Ensembleklangs beiträgt. Erstaunlich ist zudem die extrem schwierige Gestaltung des Hornparts, der für diese Zeit in außergewöhnliche Höhen vordringt.

Beispielhaft lebendige Realisierung

Dies alles wird vom fabelhaften Ensemble Nova Stravaganza in gewohnt perfekter Manier interpretiert. Wobei perfekt nicht mit abgeklärt-geradlinig gleichgesetzt werden darf. Denn an Verve, Impetus, Leidenschaft und Spielfreude geben die Musiker dieses Ensembles ein hervorragendes Beispiel ab. Dies geht nicht auf Kosten der musikalischen Struktur, die stets gleichrangig neben der Farbenvielfalt des Ensembleklangs steht oder besser gesagt: durch die instrumentatorischen Details hörbar gemacht wird. Und so kann die Ouvertüre als typische französische Ouvertüre mit federnd-punktiertem Rhythmus dieses Werk einleiten, abgelöst von polyphonen Linien, die gleichzeitig mit einer Tempoverschärfung einhergehen. Alles scheint hier bestens aufeinander abgestimmt: Die Phrasierung der Musiker, die Gestaltung von Spannungsbögen, die Balance des Ensembleklangs, die Transparenz der Einzelstimmen, die sich zu einem Ganzen (jedoch nicht zu einem Klangbrei) verbinden, die dynamische Abstufung, die tänzerische Grundhaltung. Hier wird musiziert als ginge es darum, Graupner vor dem Tod (durch Vergessen) zu bewahren. Hoffentlich gelingt das.

Denn auch die ‘Sinfonia’ in F-Dur (GWV 571) wartet mit einer Vielfalt an klanglichen und strukturellen Finessen auf, die von Nova Stravaganza unter Siegbert Rampe vorzüglich zum Klingen gebracht werden. Zum Beispiel das anrührende Largo, der dritte Satz dieser ‘Sinfonia’, in dem ein Streicherpizzikato von einer delikaten Melodielinie der Flöten und Oboen überspannt wird. An instrumentatorischem Feinsinn ist dies kaum zu überbieten.

Auf ganzer Linie überzeugend

Auch das ‘Trio’ in c-Moll für zwei Violinen und Basso continuo wird von den Musikern zart und fragil, daneben jedoch tanzend leicht und spannungsvoll interpretiert.
Resümierend kann man an das Ensemble Nova Stravaganza nur Höchstnoten vergeben. Denn hier passt die erfrischende Tempogestaltung, die nie in eine sportive Hatz ausufert, zu den federnd-spannenden Akzenten, mit denen die feingewebten Sätze Graupners interpretiert werden. Auch die klangliche Realisierung ist bestechend. Die für historische Instrumente eigene Fragilität und Weichheit der Farbe wird von den Technikern bei MDG kongenial eingefangen. Man hat beinahe den Eindruck, das Ensemble säße in den Lautsprechern. Auch in Bezug auf die dynamische Abstufung und die Transparenz der Stimmen ist diese Aufnahme kaum zu übertreffen. Diese Produktion hält jeder Kritik stand, sowohl in interpretatorischer wie auch in klanglicher Hinsicht. Kaufen! magazin.klassik.com



Thanks to pr3ss!
Christoph Graupner - Orchestral Works Vol. 2 (2004)

// classical music \\
// all of my uploads \\
________________

Download:
FLAC
Artwork
________________