Subcategories

Chrysta Bell - We Dissolve (2017)

Posted By: delpotro
Chrysta Bell - We Dissolve (2017)

Chrysta Bell - We Dissolve (2017)
XLD Rip | FLAC (tracks+log+.cue) | 00:42:41 | 253 Mb
Dreampop, Pop, Art Pop, Ethereal, Female Vocal | Label: Meta Hari Records

‘We Dissolve’ carries a lot of the same darkness and tension of Chrysta Bell’s music with David Lynch, but it’s set more in a pop genre. She ventures into some “goth soul” territory, which parallels nicely with her prevalent artistic motifs of the life/death/life cycle, the Great Unknown and Ultimate Transcendence. The lyrical matter is still pretty heavy and twisted, with obsession, dark passion and escapism touching virtually every track. Within the death ballads and murder ballads there is however a permeating sense of peace, a glimpse of sparkles in the void.

Ultimately you have a record of rich and deep material here, something to sink your teeth into, expertly produced by Mercury Prize winning producer John Parish. While is considered pop music, fans of This Train will still feel connected to Chrysta Bell through We Dissolve, and likely many more will know of her as a result of it.
Tracklist:
1. Heaven 04:21
2. Devil Inside Me 03:22
3. Planet Wide 04:01
4. Half Asleep 03:00
5. Monday 03:39
6. We Dissolve 03:25
7. Beautiful 04:07
8. Slow 06:56
9. Over You 04:50
10. Gravity 04:56

X Lossless Decoder version 20161007 (149.3)

XLD extraction logfile from 2017-11-06 21:50:23 -0500

Bell, Chrysta / We Dissolve

Used drive : TSSTcorp BDDVDW SE-506BB (revision TS00)
Media type : Pressed CD

Ripper mode : XLD Secure Ripper
Disable audio cache : OK for the drive with a cache less than 1375KiB
Make use of C2 pointers : NO
Read offset correction : 6
Max retry count : 20
Gap status : Analyzed, Appended (except HTOA)

TOC of the extracted CD
Track | Start | Length | Start sector | End sector
––––––––––––––––––––––––––––-
1 | 00:00:00 | 04:21:15 | 0 | 19589
2 | 04:21:15 | 03:22:30 | 19590 | 34769
3 | 07:43:45 | 04:01:49 | 34770 | 52893
4 | 11:45:19 | 03:00:56 | 52894 | 66449
5 | 14:46:00 | 03:39:30 | 66450 | 82904
6 | 18:25:30 | 03:25:44 | 82905 | 98323
7 | 21:50:74 | 04:07:58 | 98324 | 116906
8 | 25:58:57 | 06:56:03 | 116907 | 148109
9 | 32:54:60 | 04:50:38 | 148110 | 169897
10 | 37:45:23 | 04:56:20 | 169898 | 192117

AccurateRip Summary (DiscID: 000efbce-00795c83-860a010a)
Track 01 : OK (v2, confidence 2/2)
Track 02 : OK (v2, confidence 2/2)
Track 03 : OK (v2, confidence 2/2)
Track 04 : OK (v2, confidence 2/2)
Track 05 : OK (v2, confidence 2/2)
Track 06 : OK (v2, confidence 2/2)
Track 07 : OK (v2, confidence 2/2)
Track 08 : OK (v2, confidence 2/2)
Track 09 : OK (v2, confidence 2/2)
Track 10 : OK (v2, confidence 2/2)
->All tracks accurately ripped.

All Tracks
Album gain : -8.54 dB
Peak : 1.000000
Statistics
Read error : 0
Jitter error (maybe fixed) : 2
Retry sector count : 447
Damaged sector count : 0

Track 01
Filename : /Users/sbcpunkmail/XLD Output/Bell, Chrysta - (2017) - We Dissolve/01 Heaven.flac
Pre-gap length : 00:02:00

Track gain : -8.49 dB
Peak : 1.000000
CRC32 hash (test run) : 0BA08553
CRC32 hash : 0BA08553
CRC32 hash (skip zero) : 6BB1FD5B
AccurateRip v1 signature : 4E258A68
AccurateRip v2 signature : 32AF6B3C
->Accurately ripped (v2, confidence 2/2)
Statistics
Read error : 0
Jitter error (maybe fixed) : 0
Retry sector count : 0
Damaged sector count : 0

Track 02
Filename : /Users/sbcpunkmail/XLD Output/Bell, Chrysta - (2017) - We Dissolve/02 Devil Inside Me.flac

Track gain : -7.24 dB
Peak : 1.000000
CRC32 hash (test run) : C4C907DF
CRC32 hash : C4C907DF
CRC32 hash (skip zero) : 8B3EF5A5
AccurateRip v1 signature : C29D4495
AccurateRip v2 signature : F30912A4
->Accurately ripped (v2, confidence 2/2)
Statistics
Read error : 0
Jitter error (maybe fixed) : 0
Retry sector count : 0
Damaged sector count : 0

Track 03
Filename : /Users/sbcpunkmail/XLD Output/Bell, Chrysta - (2017) - We Dissolve/03 Planet Wide.flac

Track gain : -7.50 dB
Peak : 1.000000
CRC32 hash (test run) : A008640E
CRC32 hash : A008640E
CRC32 hash (skip zero) : A0AF6CD2
AccurateRip v1 signature : E3A7F52A
AccurateRip v2 signature : C07701B7
->Accurately ripped (v2, confidence 2/2)
Statistics
Read error : 0
Jitter error (maybe fixed) : 0
Retry sector count : 1
Damaged sector count : 0

Track 04
Filename : /Users/sbcpunkmail/XLD Output/Bell, Chrysta - (2017) - We Dissolve/04 Half Asleep.flac

Track gain : -8.61 dB
Peak : 1.000000
CRC32 hash (test run) : 93A74EEB
CRC32 hash : 93A74EEB
CRC32 hash (skip zero) : 4F67A88A
AccurateRip v1 signature : 0FF18E1E
AccurateRip v2 signature : B9A64593
->Accurately ripped (v2, confidence 2/2)
Statistics
Read error : 0
Jitter error (maybe fixed) : 0
Retry sector count : 0
Damaged sector count : 0

Track 05
Filename : /Users/sbcpunkmail/XLD Output/Bell, Chrysta - (2017) - We Dissolve/05 Monday.flac

Track gain : -7.22 dB
Peak : 1.000000
CRC32 hash (test run) : A88D0F5F
CRC32 hash : A88D0F5F
CRC32 hash (skip zero) : 5D13047D
AccurateRip v1 signature : 86BBBD2C
AccurateRip v2 signature : D1B4217B
->Accurately ripped (v2, confidence 2/2)
Statistics
Read error : 0
Jitter error (maybe fixed) : 0
Retry sector count : 0
Damaged sector count : 0

Track 06
Filename : /Users/sbcpunkmail/XLD Output/Bell, Chrysta - (2017) - We Dissolve/06 We Dissolve.flac

Track gain : -6.52 dB
Peak : 1.000000
CRC32 hash (test run) : 361907B7
CRC32 hash : 361907B7
CRC32 hash (skip zero) : 13E29258
AccurateRip v1 signature : F0F08E71
AccurateRip v2 signature : 11A0482D
->Accurately ripped (v2, confidence 2/2)
Statistics
Read error : 0
Jitter error (maybe fixed) : 0
Retry sector count : 0
Damaged sector count : 0

Track 07
Filename : /Users/sbcpunkmail/XLD Output/Bell, Chrysta - (2017) - We Dissolve/07 Beautiful.flac

Track gain : -8.59 dB
Peak : 1.000000
CRC32 hash (test run) : BCAF87DF
CRC32 hash : BCAF87DF
CRC32 hash (skip zero) : 2B87F1B6
AccurateRip v1 signature : BAFA24C5
AccurateRip v2 signature : 3D9299B3
->Accurately ripped (v2, confidence 2/2)
Statistics
Read error : 0
Jitter error (maybe fixed) : 0
Retry sector count : 0
Damaged sector count : 0

Track 08
Filename : /Users/sbcpunkmail/XLD Output/Bell, Chrysta - (2017) - We Dissolve/08 Slow.flac

Track gain : -8.97 dB
Peak : 1.000000
CRC32 hash (test run) : D815DF3F
CRC32 hash : D815DF3F
CRC32 hash (skip zero) : EA8BA473
AccurateRip v1 signature : 08D0328D
AccurateRip v2 signature : C061ADD9
->Accurately ripped (v2, confidence 2/2)
Statistics
Read error : 0
Jitter error (maybe fixed) : 1
Retry sector count : 446
Damaged sector count : 0

Track 09
Filename : /Users/sbcpunkmail/XLD Output/Bell, Chrysta - (2017) - We Dissolve/09 Over You.flac

Track gain : -8.97 dB
Peak : 1.000000
CRC32 hash (test run) : 368D2BCE
CRC32 hash : 368D2BCE
CRC32 hash (skip zero) : 7AF6CEF2
AccurateRip v1 signature : F0F2B89E
AccurateRip v2 signature : D6EF96BF
->Accurately ripped (v2, confidence 2/2)
Statistics
Read error : 0
Jitter error (maybe fixed) : 1
Retry sector count : 0
Damaged sector count : 0

Track 10
Filename : /Users/sbcpunkmail/XLD Output/Bell, Chrysta - (2017) - We Dissolve/10 Gravity.flac

Track gain : -8.87 dB
Peak : 1.000000
CRC32 hash (test run) : CEFCB228
CRC32 hash : CEFCB228
CRC32 hash (skip zero) : CA1916ED
AccurateRip v1 signature : 810E2AEB
AccurateRip v2 signature : 8CCCC09A
->Accurately ripped (v2, confidence 2/2)
Statistics
Read error : 0
Jitter error (maybe fixed) : 0
Retry sector count : 0
Damaged sector count : 0

No errors occurred

End of status report

––-BEGIN XLD SIGNATURE––-
H7EBO_58ebrnPjokCv3LpRGdiwDKFudtaZpZ1tXeqlR4j.ipPDzk2cMYSCI8W8zGROe3Pr9XuODPo_twW7exBrtgDfH43CVwmiRWG8S
––-END XLD SIGNATURE––-

Thanks to the Original ripper lemmy !