Subcategories

Cindy McTee - Symphony no. 1: Ballet for Orchestra, Circuits, Einstein’s Dream, Double Play (2012)

Posted By: shamanicus
Cindy McTee - Symphony no. 1: Ballet for Orchestra, Circuits, Einstein’s Dream, Double Play (2012)

Cindy McTee - Symphony no. 1: Ballet for Orchestra, Circuits, Einstein’s Dream, Double Play (2012)
EAC Rip | FLAC (tracks+.cue, log) | Covers | 300 mb | MP3 CBR 320kbps | RAR | 158 mb
Classical | Label: Naxos - 8.559765

Regarded as one of the most brilliant composers of her generation, Cindy McTee demonstrates her prodigious skills at orchestral writing in this 2013 Naxos release, recorded by Leonard Slatkin and the Detroit Symphony Orchestra.For the perpetual motion piece Circuits (1990), McTee uses timbres in a dynamic way, keeping tone colors cycling in constant rotation, almost in synchronization with the changes of rhythmic cells
Blair Sanderson


Tracklist:

01. Circuits
02. Symphony No. 1 'Ballet For Orchestra' : 1. Introduction 'On With The Dance'
03. Symphony No. 1 'Ballet For Orchestra' : 2. Adagio 'Till A Silence Fell'
04. Symphony No. 1 'Ballet For Orchestra' : 3. Waltz 'Light Fantastic'
05. Symphony No. 1 'Ballet For Orchestra' : 4. Finale 'Where Time Playes The Fiddle'
06. Einstein's Dream
07. Double Play : 1. Unquestioned Answer
08. Double Play : 2. Tempus Fugit

Cindy McTee (Composer),
Leonard Slatkin (Conductor),
Detroit Symphony Orchestra (Orchestra)


Cindy McTee - Symphony no. 1: Ballet for Orchestra, Circuits, Einstein’s Dream, Double Play (2012)


Exact Audio Copy V1.0 beta 3 from 29. August 2011

EAC extraction logfile from 24. August 2014, 14:59

Detroit Symphony Orchestra, Leonard Slatkin / Cindy McTee: Symphony No. 1

Used drive : ATAPI iHAS324 C Adapter: 2 ID: 0

Read mode : Secure
Utilize accurate stream : Yes
Defeat audio cache : Yes
Make use of C2 pointers : No

Read offset correction : 6
Overread into Lead-In and Lead-Out : No
Fill up missing offset samples with silence : Yes
Delete leading and trailing silent blocks : No
Null samples used in CRC calculations : Yes
Used interface : Native Win32 interface for Win NT & 2000
Gap handling : Appended to previous track

Used output format : User Defined Encoder
Selected bitrate : 896 kBit/s
Quality : High
Add ID3 tag : No
Command line compressor : C:\Program Files (x86)\Exact Audio Copy\Flac\flac.exe
Additional command line options : -8 -V -T "ARTIST=%artist%" -T "TITLE=%title%" -T "ALBUM=%albumtitle%" -T "DATE=%year%" -T "TRACKNUMBER=%tracknr%" -T "GENRE=%genre%" -T "PERFORMER=%albuminterpret%" -T "COMPOSER=%composer%" %haslyrics%–tag-from-file=LYRICS="%lyricsfile%"%haslyrics% -T "ALBUMARTIST=%albumartist%" -T "DISCNUMBER=%cdnumber%" -T "TOTALDISCS=%totalcds%" -T "TOTALTRACKS=%numtracks%" -T "COMMENT=%comment%" %source% -o %dest%


TOC of the extracted CD

Track | Start | Length | Start sector | End sector
––––––––––––––––––––––––––––-
1 | 0:00.00 | 5:32.00 | 0 | 24899
2 | 5:32.00 | 8:09.55 | 24900 | 61629
3 | 13:41.55 | 11:55.11 | 61630 | 115265
4 | 25:36.66 | 3:19.65 | 115266 | 130255
5 | 28:56.56 | 6:49.69 | 130256 | 160999
6 | 35:46.50 | 14:21.60 | 161000 | 225634
7 | 50:08.35 | 7:35.38 | 225635 | 259797
8 | 57:43.73 | 8:57.02 | 259798 | 300074


Track 1

Filename D:\Actual Files 2\Cindy McTee - Symphony No. 1 (2012) [FLAC]\01 - Circuits.wav

Pre-gap length 0:00:02.00

Peak level 97.9 %
Extraction speed 4.9 X
Track quality 99.9 %
Test CRC 6842B671
Copy CRC 6842B671
Accurately ripped (confidence 1) [0C43D3C7] (AR v2)
Copy OK

Track 2

Filename D:\Actual Files 2\Cindy McTee - Symphony No. 1 (2012) [FLAC]\02 - Symphony No. 1 ''Ballet For Orchestra'' - 1. Introduction ''On With The Dance''.wav

Pre-gap length 0:00:10.44

Peak level 98.2 %
Extraction speed 6.6 X
Track quality 100.0 %
Test CRC 158749A7
Copy CRC 158749A7
Accurately ripped (confidence 1) [04DD5B56] (AR v2)
Copy OK

Track 3

Filename D:\Actual Files 2\Cindy McTee - Symphony No. 1 (2012) [FLAC]\03 - Symphony No. 1 ''Ballet For Orchestra'' - 2. Adagio ''Till A Silence Fell''.wav

Peak level 35.7 %
Extraction speed 7.4 X
Track quality 99.9 %
Test CRC 8A43FF0C
Copy CRC 8A43FF0C
Accurately ripped (confidence 1) [4B4467C2] (AR v2)
Copy OK

Track 4

Filename D:\Actual Files 2\Cindy McTee - Symphony No. 1 (2012) [FLAC]\04 - Symphony No. 1 ''Ballet For Orchestra'' - 3. Waltz ''Light Fantastic''.wav

Pre-gap length 0:00:06.73

Peak level 79.3 %
Extraction speed 6.3 X
Track quality 99.9 %
Test CRC CC1C1802
Copy CRC CC1C1802
Accurately ripped (confidence 1) [B5926DB3] (AR v2)
Copy OK

Track 5

Filename D:\Actual Files 2\Cindy McTee - Symphony No. 1 (2012) [FLAC]\05 - Symphony No. 1 ''Ballet For Orchestra'' - 4. Finale ''Where Time Playes The Fiddle''.wav

Pre-gap length 0:00:03.54

Peak level 98.6 %
Extraction speed 8.9 X
Track quality 100.0 %
Test CRC 0825CAAC
Copy CRC 0825CAAC
Accurately ripped (confidence 1) [0316D145] (AR v2)
Copy OK

Track 6

Filename D:\Actual Files 2\Cindy McTee - Symphony No. 1 (2012) [FLAC]\06 - Einstein's Dream.wav

Pre-gap length 0:00:07.49

Peak level 41.8 %
Extraction speed 10.2 X
Track quality 100.0 %
Test CRC 1F84A09A
Copy CRC 1F84A09A
Accurately ripped (confidence 1) [9E58C54E] (AR v2)
Copy OK

Track 7

Filename D:\Actual Files 2\Cindy McTee - Symphony No. 1 (2012) [FLAC]\07 - Double Play - 1. Unquestioned Answer.wav

Pre-gap length 0:00:11.02

Peak level 98.0 %
Extraction speed 9.6 X
Track quality 99.9 %
Test CRC E4F4231B
Copy CRC E4F4231B
Accurately ripped (confidence 1) [62217ABA] (AR v2)
Copy OK

Track 8

Filename D:\Actual Files 2\Cindy McTee - Symphony No. 1 (2012) [FLAC]\08 - Double Play - 2. Tempus Fugit.wav

Peak level 98.1 %
Extraction speed 11.4 X
Track quality 100.0 %
Test CRC 24736EC4
Copy CRC 24736EC4
Accurately ripped (confidence 1) [AF77F80D] (AR v2)
Copy OK


All tracks accurately ripped

No errors occurred

End of status report

==== Log checksum E3243F686D1EF03F33402E82490FA33EABD88CC36BC2C052870648FB1EC6EA0C ====


Thanks to the Original customer.