Kenny Clarke & Francy Boland - Jazz Is Universal (1961) {2012 Japan 24-bit Remaster} [Jazz Best Collection 1000 Series]

Posted By: ruskaval
Kenny Clarke & Francy Boland - Jazz Is Universal (1961) {2012 Japan 24-bit Remaster} [Jazz Best Collection 1000 Series]

Kenny Clarke & Francy Boland - Jazz Is Universal (1961) {2012 Japan 24-bit Remaster} [Jazz Best Collection 1000 Series]
EAC rip (secure mode) | FLAC (tracks)+CUE+LOG -> 219 Mb | MP3 @320 -> 90 Mb
Full Artwork @ 600 dpi (png) -> 121 Mb | 5% repair rar | 24-bit remaster
© 2013 Atlantic / Warner Japan / Rhino | WPCR-27191 | Jazz Best Collection 1000 Series
Jazz / Modern Big Band / Progressive Jazz

Features 24 bit remastering and comes with a mini-description. Some big bands started outside the U.S. One notable example was the Kenny Clarke-Francy Boland Big Band—which was formed in '60 by American expatriate drummer Clarke, Belgian pianist Boland and former Ellington bassist Jimmy Woode. The band lasted just over 10 years and recorded more than 20 albums. Solos were spread among the 13 all-star musicians, and the band's charts were often intricate and laced with European flavor.

Charts were most often written by Boland, a classically trained composer who spent a chunk of the '50s in the U.S. The band's first album was Jazz Is Universal (Atlantic), recorded in December 1961 in Cologne, Germany. As the Atlantic album's liner notes by public relations maven Bob Altshuler point out, musicians from seven countries were in the band—six from the U.S., two from England while one each from France, Belgium, Sweden, Turkey and Austria.
Kenny Clarke & Francy Boland - Jazz Is Universal (1961) {2012 Japan 24-bit Remaster} [Jazz Best Collection 1000 Series]

It took a year and a half to plan this recording due to the jagged schedules of the musicians and the need for rehearsals. During the time that elapsed, Boland wrote and arranged many of the tunes. Listening back to the album more than 50 years later, it's remarkable how fresh and modern the material sounds.

Among the notable solos are those by tenor saxophonist Drevo on Gloria, Shahib's flute and Sims's tenor sax on Charon's Ferry, pianist Boland on Valutes and Bailey, Shihab, Drevo and Sims on James Moody's Last Train From Overbrook. But truly, there isn't a bad composition on the entire album.

The Kenny Clarke-Francy Boland Big Band's sophisticated sound paved a courageous new course. Among the modernist bands that were formed during the early '60s were Gerry Mulligan's Concert Jazz Band in '60 (both Clarke and Boland played in the band) and the Thad Jones-Mel Lewis Orchestra in '65. The Kenny Clarke-Francy Boland band was jammed with all-star talent who spoke the same musical language and performed accordingly—harmonious together, monsters apart.

Personnel:
Ahmed Muvaffak Falay, Benny Bailey, Jimmy Deuchar, Roger Guerin - trumpet
Pat Peck, Ake Persson - trombone
Derek Humble - alto sax
Carl Drevo, Zoot Sims - tenor sax
Sahib Shihab - baritone sax or flute
Francy Boland - piano, arrangements
Jimmy Woode - bass
Kenny Clarke - drums

tracklist:
01 - Box 703, Washington, D.C
02 - The Styx
03 - Gloria
04 - Los Bravos
05 - Charon's Ferry
06 - Volutes
07 - Last Train From Overbrook

Exact Audio Copy V1.0 beta 4 from 7. December 2014

EAC extraction logfile from 4. March 2015, 19:04

Kenny Clarke & Francy Boland / Jazz Is Universal

Used drive : TSSTcorpCDDVDW SE-208DB Adapter: 1 ID: 1

Read mode : Secure
Utilize accurate stream : Yes
Defeat audio cache : Yes
Make use of C2 pointers : No

Read offset correction : 6
Overread into Lead-In and Lead-Out : No
Fill up missing offset samples with silence : Yes
Delete leading and trailing silent blocks : No
Null samples used in CRC calculations : Yes
Used interface : Native Win32 interface for Win NT & 2000
Gap handling : Appended to previous track

Used output format : User Defined Encoder
Selected bitrate : 1024 kBit/s
Quality : High
Add ID3 tag : No
Command line compressor : C:\Program Files (x86)\FLAC Frontend\tools\flac.exe
Additional command line options : -8 -V -T "ARTIST=%artist%" -T "TITLE=%title%" -T "ALBUM=%albumtitle%" -T "DATE=%year%" -T "TRACKNUMBER=%tracknr%" -T "TOTALTRACKS=%numtracks%" -T "GENRE=%genre%" -T "ALBUMARTIST=%albumartist%" -T "ALBUM ARTIST=%albumartist%" -T "COMMENT=EAC Secure Mode, Test & Copy, AccurateRip, FLAC -8" %source%


TOC of the extracted CD

Track | Start | Length | Start sector | End sector
––––––––––––––––––––––––––––-
1 | 0:00.00 | 5:06.71 | 0 | 23020
2 | 5:06.71 | 3:53.52 | 23021 | 40547
3 | 9:00.48 | 4:39.32 | 40548 | 61504
4 | 13:40.05 | 5:03.20 | 61505 | 84249
5 | 18:43.25 | 6:10.20 | 84250 | 112019
6 | 24:53.45 | 6:00.63 | 112020 | 139082
7 | 30:54.33 | 6:40.47 | 139083 | 169129


Track 1

Filename D:\_EAC\Kenny Clarke & Francy Boland - Jazz Is Universal (1961) {2012 Japan 24-bit Remaster} [Jazz Best Collection 1000 Series]\01 - Box 703, Washington, D.C.wav

Pre-gap length 0:00:02.00

Peak level 100.0 %
Extraction speed 2.6 X
Track quality 100.0 %
Test CRC CCD8C4BF
Copy CRC CCD8C4BF
Accurately ripped (confidence 4) [C016E4AE] (AR v2)
Copy OK

Track 2

Filename D:\_EAC\Kenny Clarke & Francy Boland - Jazz Is Universal (1961) {2012 Japan 24-bit Remaster} [Jazz Best Collection 1000 Series]\02 - The Styx.wav

Pre-gap length 0:00:00.47

Peak level 100.0 %
Extraction speed 2.4 X
Track quality 99.9 %
Test CRC 9EEB4C8D
Copy CRC 9EEB4C8D
Accurately ripped (confidence 4) [7B1DB853] (AR v2)
Copy OK

Track 3

Filename D:\_EAC\Kenny Clarke & Francy Boland - Jazz Is Universal (1961) {2012 Japan 24-bit Remaster} [Jazz Best Collection 1000 Series]\03 - Gloria.wav

Pre-gap length 0:00:01.05

Peak level 98.9 %
Extraction speed 3.3 X
Track quality 100.0 %
Test CRC BED6BF64
Copy CRC BED6BF64
Accurately ripped (confidence 4) [9AC2125E] (AR v2)
Copy OK

Track 4

Filename D:\_EAC\Kenny Clarke & Francy Boland - Jazz Is Universal (1961) {2012 Japan 24-bit Remaster} [Jazz Best Collection 1000 Series]\04 - Los Bravos.wav

Pre-gap length 0:00:00.53

Peak level 98.5 %
Extraction speed 3.6 X
Track quality 100.0 %
Test CRC 0A7713BB
Copy CRC 0A7713BB
Accurately ripped (confidence 4) [55AB5C1C] (AR v2)
Copy OK

Track 5

Filename D:\_EAC\Kenny Clarke & Francy Boland - Jazz Is Universal (1961) {2012 Japan 24-bit Remaster} [Jazz Best Collection 1000 Series]\05 - Charon's Ferry.wav

Pre-gap length 0:00:00.59

Peak level 100.0 %
Extraction speed 4.0 X
Track quality 100.0 %
Test CRC 710E6A48
Copy CRC 710E6A48
Accurately ripped (confidence 4) [A81D4F16] (AR v2)
Copy OK

Track 6

Filename D:\_EAC\Kenny Clarke & Francy Boland - Jazz Is Universal (1961) {2012 Japan 24-bit Remaster} [Jazz Best Collection 1000 Series]\06 - Volutes.wav

Pre-gap length 0:00:00.44

Peak level 100.0 %
Extraction speed 3.7 X
Track quality 99.9 %
Test CRC 13642B4C
Copy CRC 13642B4C
Accurately ripped (confidence 4) [B1CFF54D] (AR v2)
Copy OK

Track 7

Filename D:\_EAC\Kenny Clarke & Francy Boland - Jazz Is Universal (1961) {2012 Japan 24-bit Remaster} [Jazz Best Collection 1000 Series]\07 - Last Train From Overbrook.wav

Pre-gap length 0:00:00.54

Peak level 100.0 %
Extraction speed 4.6 X
Track quality 100.0 %
Test CRC 11CC5E4B
Copy CRC 11CC5E4B
Accurately ripped (confidence 4) [F3452FC1] (AR v2)
Copy OK


All tracks accurately ripped

No errors occurred

End of status report

==== Log checksum ACEFE7F5C9DF66F493FF528272A41E50C8B3AE502453D68EC5E32C0FE51ABF96 ====


Kenny Clarke & Francy Boland - Jazz Is Universal (1961) {2012 Japan 24-bit Remaster} [Jazz Best Collection 1000 Series]

Kenny 			  		 	 	  		 	    	 			   			     		   	  	 			   		  	   		   	  		      	 			   			  	  			  				 Clarke & Francy Boland - Jazz Is Universal (1961) {2012 Japan 24-bit Remaster} [Jazz Best Collection 1000 Series]


Leo Wright - Suddenly The Blues (1962) {2012 Atlantic Japan 24-bit Remaster}
Milt Jackson - Bags & Flutes (1957) + The Ballad Artistry of Milt Jackson (1959) {2012 Atlantic Japan 24-bit Remaster}
Leo Wright - Blues Shout (1960) + Soul Talk (1963) {2013 Atlantic Japan 24-bit Remaster}
Ray Bryant - Ray Bryant Trio (1957) + MCMLXX (1970) {2012 Japan 24-bit Remaster}
Jack Wilson - The Two Sides Of Jack Wilson (1964) {2012 Japan 24-bit Remaster}
The Modern Jazz Quartet - At Music Inn (1956) + Third Stream Music (1960) {2013 Japan 24-bit Remaster}
The Modern Jazz Quartet - At Music Inn. Volume 2 (1959) {2013 Japan 24-bit Remaster}
John Lewis & Albert Mangelsdorff & The Zagreb Jazz Quartet - Animal Dance (1964) {2013 Atlantic Japan 24-bit Remaster}
John Lewis - Jazz Abstractions (1961) {2013 Atlantic Japan 24-bit Remaster}
The Clare Fischer Big Band - Thesaurus (1969) {2013 Atlantic Japan 24-bit Remaster}
Joe Castro - Groove Funk Soul (1960) {2013 Atlantic Japan 24-bit Remaster}
Jack Wilson - The Jack Wilson Quartet featuring Roy Ayers (1963) {2012 Japan 24-bit Remaster}
The Jazz Modes - The Most Happy Fella (1957) {2013 Japan 24-bit Remaster}
Jaco Pastorius Big Band - Twins I (1982) {2013 Japan 24-bit Remaster}
Jaco Pastorius Big Band - Twins II (1982) {2013 Japan 24-bit Remaster}
Mose Allison - Swingin' Machine (1962) {2014 Japan 24-bit Remaster} [Jazz Best Collection 1000 Series]
The Modern Jazz Quartet - Concert In Japan Vol. 1 (1966) {2013 Japan 24-bit Remaster} [Jazz Best Collection 1000 Series]
The Modern Jazz Quartet - Concert In Japan Vol. 2 (1966) {2013 Japan 24-bit Remaster} [Jazz Best Collection 1000 Series]
Miroslav Vitous - Infinite Search (1969) {2013 Japan 24-bit Remaster} [Jazz Best Collection 1000 Series]
Robin Kenyatta - Until (1968) {2013 Japan 24-bit Remaster} [Jazz Best Collection 1000 Series]
Slide Hampton - Jazz With A Twist (1962) {2012 Japan 24-bit Remaster} [Jazz Best Collection 1000 Series]
The Max Roach Trio - The Max Roach Trio featuring the legendary Hasaan (1965) {2012 Japan 24-bit Remaster} [Jazz Best Collection 1000 Series]
Milt Jackson & John Coltrane - Bags & Trane (1959) {2012 Japan 24-bit Remaster} [Jazz Best Collection 1000 Series]
Chick Corea - Tones for Joan's Bones (1966) {2012 Japan 24-bit Remaster} [Jazz Best Collection 1000 Series]
Milt Jackson - Ballads & Blues (1956) {2012 Japan 24-bit Remaster} [Jazz Best Collection 1000 Series]
The Modern Jazz Quartet - The Last Concert Vol.1 (1974) {2014 Japan 24-bit Remaster} [Jazz Best Collection 1000 Series]
The Modern Jazz Quartet - The Last Concert Vol.2 (1974) {2014 Japan 24-bit Remaster} [Jazz Best Collection 1000 Series]
The Modern Jazz Quartet - More From The Last Concert (1974) {2014 Japan 24-bit Remaster} [Jazz Best Collection 1000 Series]
Lionel Hampton & His Orchestra - Sentimental Journey (1985) {2014 Japan 24-bit Remaster} [Jazz Best Collection 1000 Series]
John Lewis - Evolution (1999) {2014 Japan 24-bit Remaster} [Jazz Best Collection 1000 Series]
John Lewis - Evolution II (2000) {2014 Japan 24-bit Remaster} [Jazz Best Collection 1000 Series]
Barney Kessel And His Men - Breakfast At Tiffany's (1962) {2013 Japan 24-bit Remaster} [Jazz Best Collection 1000 Series]
The Modern Jazz Quartet - The Modern Jazz Quartet (1957) {2012 Japan 24-bit Remaster} [Jazz Best Collection 1000 Series]
The Gary Burton Quartet - Live In Tokyo (1971) {2013 Japan 24-bit Remaster} [Jazz Best Collection 1000 Series]
John Lewis - The Golden Striker (1960) {2013 Japan 24-bit Remaster} [Jazz Best Collection 1000 Series]
The Modern Jazz Quartet - No Sun In Venice (1957) {2013 Japan 24-bit Remaster} [Jazz Best Collection 1000 Series]


NEXT -> More Japan Jazz Best Collection 1000 Series CDs…