Subcategories

The Cramps - Big Beat From Badsville (1997) [Reissue 2001] Bonus Tracks {RE-UPPED}

Posted By: Shar'EmAll
The Cramps - Big Beat From Badsville (1997) [Reissue 2001] Bonus Tracks {RE-UPPED}

The Cramps - Big Beat From Badsville (1997) [Reissue 2001]
EAC | FLAC-IMG+CUE+LOG > 393 MB | Complete Scans > 20 MB | MP3 CBR 320 Kbps > 128 MB
Genre: Rock/Garage Punk/Psychobilly | 55:30 min | Label: Vengeance Records # CDWIKD 210

Big Beat from Badsville is the twelfth album by The Cramps. It was originally released on Epitaph Records. It was recorded and mixed at the engineer Earle Mankey's house in Thousand Oaks, California in May 1997, and was self-produced by Poison Ivy and Lux Interior. The Cramps reissued the album on their own record label Vengeance Records in 2001 with 4 bonus tracks: "Confessions of a Psycho Cat," "No Club Lone Wolf," "I Walked All Night," and "Peter Gunn."


The Cramps - Big Beat From Badsville (1997) [Reissue 2001] Bonus Tracks {RE-UPPED}

As the Cramps approached their 20th anniversary, they showed no signs of changing their signature kitschy psychobilly style. In so many ways, Big Beat From Badsville is no different from its immediate predecessor, Flamejob, or any of the group's other records – it's a collection of campy songs about sex, horror, violence, leather and perversion. Sonically, it's slightly rawer than Flamejob, and the group's performances are as inspired here as they are on any of their other '90s albums. And the songs are uniformly good, even if there aren't any standouts. So, Big Beat From Badsville is the kind of record that fans will be pleased with, but newcomers will just wonder what the big deal is.

– Review by Stephen Thomas Erlewine, allmusic com

Tracklist:

01. Cramp Stomp
02. God Monster
03. It Thing Hard-On
04. Like A Bad Girl Should
05. Sheena's In A Goth Gang
06. Queen Of Pain
07. Monkey With Your Tail
08. Devil Behind That Bush
09. Super Goo
10. Hypno Sex Ray
11. Burn She-Devil, Burn
12. Wet Nightmare
13. Badass Bug
14. Haulass Hyena
15. Confessions Of A Psycho Cat (Reissue Bonus Track)
16. No Club Lone Wolf (Reissue Bonus Track)
17. I Walked All Night (Reissue Bonus Track)
18. Peter Gunn (Reissue Bonus Track)

- Lux Interior: vocals
- Poison Ivy: guitar
- Slim Chance: bass guitar
- Harry Drumdini: drums

Thanks to the original ripper!

Exact Audio Copy V0.99 prebeta 5 from 4. May 2009

EAC extraction logfile from 25. May 2010, 1:53

The Cramps / Big Beat From Badsville

Used drive : PLEXTOR DVDR PX-880U Adapter: 0 ID: 3

Read mode : Secure
Utilize accurate stream : Yes
Defeat audio cache : Yes
Make use of C2 pointers : No

Read offset correction : 6
Overread into Lead-In and Lead-Out : No
Fill up missing offset samples with silence : Yes
Delete leading and trailing silent blocks : No
Null samples used in CRC calculations : Yes
Used interface : Native Win32 interface for Win NT & 2000

Used output format : Internal WAV Routines
Sample format : 44.100 Hz; 16 Bit; Stereo


TOC of the extracted CD

Track | Start | Length | Start sector | End sector
––––––––––––––––––––––––––––-
1 | 0:00.00 | 3:25.12 | 0 | 15386
2 | 3:25.12 | 4:06.27 | 15387 | 33863
3 | 7:31.39 | 2:49.36 | 33864 | 46574
4 | 10:21.00 | 3:05.32 | 46575 | 60481
5 | 13:26.32 | 2:44.48 | 60482 | 72829
6 | 16:11.05 | 3:50.30 | 72830 | 90109
7 | 20:01.35 | 3:38.69 | 90110 | 106528
8 | 23:40.29 | 3:33.67 | 106529 | 122570
9 | 27:14.21 | 2:27.43 | 122571 | 133638
10 | 29:41.64 | 2:26.27 | 133639 | 144615
11 | 32:08.16 | 2:23.70 | 144616 | 155410
12 | 34:32.11 | 3:36.33 | 155411 | 171643
13 | 38:08.44 | 2:25.50 | 171644 | 182568
14 | 40:34.19 | 2:53.72 | 182569 | 195615
15 | 43:28.16 | 3:32.65 | 195616 | 211580
16 | 47:01.06 | 2:28.35 | 211581 | 222715
17 | 49:29.41 | 2:49.52 | 222716 | 235442
18 | 52:19.18 | 3:10.32 | 235443 | 249724


Range status and errors

Selected range

Filename Z:\Lossless Music\The Cramps - Big Beat From Badsville (1997) [Reissue 2001]\The Cramps - Big Beat From Badsville (Reissue 2001).wav

Peak level 99.9 %
Range quality 100.0 %
Test CRC E84C2905
Copy CRC E84C2905
Copy OK

No errors occurred


AccurateRip summary

Track 1 accurately ripped (confidence 2) [B24158DF]
Track 2 accurately ripped (confidence 2) [77A7D887]
Track 3 accurately ripped (confidence 2) [3DCF2544]
Track 4 accurately ripped (confidence 2) [E7310AC2]
Track 5 accurately ripped (confidence 2) [F5366DDB]
Track 6 accurately ripped (confidence 2) [58EE6326]
Track 7 accurately ripped (confidence 2) [52FAC412]
Track 8 accurately ripped (confidence 2) [9CDD65C8]
Track 9 accurately ripped (confidence 2) [AC5F7051]
Track 10 accurately ripped (confidence 2) [7B77B5DE]
Track 11 accurately ripped (confidence 2) [B000AB79]
Track 12 accurately ripped (confidence 2) [4F0D81C9]
Track 13 accurately ripped (confidence 2) [C5AF9706]
Track 14 accurately ripped (confidence 2) [4170F3F4]
Track 15 accurately ripped (confidence 2) [F38F4FE3]
Track 16 accurately ripped (confidence 2) [BFC295E2]
Track 17 accurately ripped (confidence 2) [C4D7BE1F]
Track 18 accurately ripped (confidence 2) [536D4F32]

All tracks accurately ripped

End of status report

FLAC
Part 1
Part 2
Part 3

Scans

MP3 320

Recovery info has included.