Subcategories

The Cramps - Psychedelic Jungle & Gravest Hits (1989) [IRS - 2 in 1 Reissue] RE-UPPED

Posted By: Shar'EmAll
The Cramps - Psychedelic Jungle & Gravest Hits (1989) [IRS - 2 in 1 Reissue] RE-UPPED

The Cramps - Psychedelic Jungle & Gravest Hits (1989)
EAC | FLAC-IMG+CUE+LOG > 343 MB | Covers included | 56:58 min | MP3 CBR 320 Kbps > 134 MB
Genre: Rock/Psychobilly/Porno Groove | Label: International Record Syndicate # CD 70058-2

The Cramps were an American garage punk band formed in 1976 and were active until 2009. The band split after suffering the death of lead singer Lux Interior. They were part of the early CBGB punk rock movement that had emerged in New York. The Cramps are noted as influencing a number of musical styles: not only are they one of the first garage punk bands but also by being the first known band to blend punk rock with rockabilly, The Cramps are widely recognized as one of the prime innovators of psychobilly, and they inspired many of the early goth rock bands.


Combining what is arguably the band's finest full-length album with their debut collection of covers, Psychedelic Jungle/Gravest Hits offers up a substantial dose of the Cramps' punk-strained mix of rockabilly music and '50s horror flick aesthetics. Lux Interior's ghoulishly manic vocals, Poison Ivy's treble-heavy guitar distortion, and Knick Knox's tribal beat are all ideally showcased on such Cramps classics as "Goo Goo Muck," "Primitive," "Green Door," and "The Crusher." While these are all fine covers, originals such as "Caveman," "Can't Find My Mind," and "Beautiful Garden" demonstrate the Cramps could take their rockabilly roots to fetchingly Gothic extremes. Adding to the riches from Psychedelic Jungle, the five-song EP, Gravest Hits, features inimitable versions of the Trashmen's "Surfin' Bird," Roy Orbison's early rockabilly side "Domino," and the Ricky Nelson hit "Lonesome Town." With quality roundups hard to come by, Cramps fans would do well to pick this two-fer of the band's prime early material.

– Review by Stephen Cook, allmusic com

Tracklist:

01. Green Fuzz
02. Goo Goo Muck
03. Rockin' Bones
04. Voodoo Idol
05. Primitive
06. Caveman
07. The Crusher
08. Don't Eat Stuff Off The Sidewalk
09. Can't Find My Mind
10. Jungle Hop
11. The Natives Are Restless
12. Under The Wires
13. Beautiful Gardens
14. Green Door
15. Human Fly
16. The Way I Walk
17. Domino
18. Surfin' Bird
19. Lonesome Town

Tracks 1-14 taken from "Psychedelic Jungle" LP 1981
Tracks 15-19 taken from "Gravest Hits" Mini-LP 1979

- Lux Interior: vocals
- Poison Ivy Rorschach: guitar
- Kid Congo Powers: guitar
- Nick Knox: drums
- Brian Gregory: guitar on "Gravest Hits" tracks

Prepared for CD Release by John Guarnieri.
Digitally Remastered by Mike Reese at A&M Studios, CA.
All thanks goes to the original ripper!

Exact Audio Copy V0.99 prebeta 5 from 4. May 2009

EAC extraction logfile from 21. May 2010, 11:28

The Cramps / Psychedelic Jungle & Gravest Hits

Used drive : PLEXTOR DVDR PX-880U Adapter: 0 ID: 3

Read mode : Secure
Utilize accurate stream : Yes
Defeat audio cache : Yes
Make use of C2 pointers : No

Read offset correction : 6
Overread into Lead-In and Lead-Out : No
Fill up missing offset samples with silence : Yes
Delete leading and trailing silent blocks : No
Null samples used in CRC calculations : Yes
Used interface : Native Win32 interface for Win NT & 2000

Used output format : Internal WAV Routines
Sample format : 44.100 Hz; 16 Bit; Stereo


TOC of the extracted CD

Track | Start | Length | Start sector | End sector
––––––––––––––––––––––––––––-
1 | 0:00.00 | 2:08.58 | 0 | 9657
2 | 2:08.58 | 3:06.05 | 9658 | 23612
3 | 5:14.63 | 2:48.65 | 23613 | 36277
4 | 8:03.53 | 3:39.02 | 36278 | 52704
5 | 11:42.55 | 3:31.73 | 52705 | 68602
6 | 15:14.53 | 3:51.12 | 68603 | 85939
7 | 19:05.65 | 1:47.45 | 85940 | 94009
8 | 20:53.35 | 2:04.35 | 94010 | 103344
9 | 22:57.70 | 3:01.43 | 103345 | 116962
10 | 25:59.38 | 2:07.12 | 116963 | 126499
11 | 28:06.50 | 3:00.03 | 126500 | 140002
12 | 31:06.53 | 2:44.40 | 140003 | 152342
13 | 33:51.18 | 3:59.30 | 152343 | 170297
14 | 37:50.48 | 2:37.00 | 170298 | 182072
15 | 40:27.48 | 2:15.17 | 182073 | 192214
16 | 42:42.65 | 2:43.03 | 192215 | 204442
17 | 45:25.68 | 3:08.32 | 204443 | 218574
18 | 48:34.25 | 5:08.48 | 218575 | 241722
19 | 53:42.73 | 3:15.05 | 241723 | 256352


Range status and errors

Selected range

Filename Z:\Lossless Music\The Cramps - Psychedelic Jungle & Gravest Hits (1989) [IRS CD]\The Cramps - Psychedelic Jungle & Gravest Hits.wav

Peak level 97.7 %
Range quality 100.0 %
Test CRC 713CB437
Copy CRC 713CB437
Copy OK

No errors occurred


AccurateRip summary

Track 1 accurately ripped (confidence 7) [6931E994]
Track 2 accurately ripped (confidence 7) [3311AB7D]
Track 3 accurately ripped (confidence 7) [99F14F47]
Track 4 accurately ripped (confidence 7) [0FE73446]
Track 5 accurately ripped (confidence 7) [E90A737A]
Track 6 accurately ripped (confidence 7) [0A3A71F9]
Track 7 accurately ripped (confidence 7) [B303547E]
Track 8 accurately ripped (confidence 7) [1AC2F65D]
Track 9 accurately ripped (confidence 7) [6BAC35C2]
Track 10 accurately ripped (confidence 7) [5A4BA296]
Track 11 accurately ripped (confidence 7) [BA822B1D]
Track 12 accurately ripped (confidence 7) [04AB9FA1]
Track 13 accurately ripped (confidence 7) [DEFED688]
Track 14 accurately ripped (confidence 7) [5ECBED66]
Track 15 accurately ripped (confidence 7) [A8B6160C]
Track 16 accurately ripped (confidence 7) [319AF4C2]
Track 17 accurately ripped (confidence 7) [F54AA596]
Track 18 accurately ripped (confidence 7) [03F7F94D]
Track 19 accurately ripped (confidence 7) [0F190083]

All tracks accurately ripped

End of status report

FLAC 1
FLAC 2
FLAC 3

MP3 320

Recovery info has included.