Subcategories

Daft Punk - Random Access Memories (Japanese Edition) (2013)

Posted By: delpotro
Daft Punk - Random Access Memories (Japanese Edition) (2013)

Daft Punk - Random Access Memories (Japanese Edition) (2013)
EAC Rip | FLAC (tracks+log+.cue) - 490 Mb | MP3 CBR 320 kbps - 181 Mb | 01:19:00
Funk, House, Disco | Label: Colubmia Records, Sony Records International

Random Access Memories is the fourth studio album by French electronic music duo Daft Punk, released on 17 May 2013 by the duo's imprint Daft Life and Columbia Records. The album pays tribute to the late 1970s and early 1980s American music, particularly from Los Angeles. Unlike their previous albums, Daft Punk recruited session musicians to perform live instrumentation and limited the use of electronic instruments to drum machines, a custom-built modular synthesizer, and vintage vocoders. The album features collaborations with Giorgio Moroder, Panda Bear, Julian Casablancas, Todd Edwards, DJ Falcon, Chilly Gonzales, Nile Rodgers, Paul Williams and Pharrell Williams. It is the first Daft Punk album released by Columbia Records. The Japan-exclusive bonus track "Horizon", written by Bangalter and de Homem Christo, is a slow-tempo composition reminiscent of Pink Floyd. It is characterized by a consistent guitar strum while several additional instruments are progressively layered over, including a bass guitar and drums. The song is stylistically different from other tracks on the album, and is one of the few to feature no lyrics.
Tracklist:
01. Give Life Back to Music
02. The Game of Love
03. Giorgio by Moroder
04. Within
05. Instant Crush (feat. Julian Casablancas)
06. Lose Yourself to Dance (feat. Pharrell Williams)
07. Touch (feat. Paul Williams)
08. Get Lucky (feat. Pharrell Williams)
09. Beyond
10. Motherboard
11. Fragments of Time (feat. Todd Edwards)
12. Doin' It Right (feat. Panda Bear)
13. Contact
14. Horizon

Exact Audio Copy V1.0 beta 3 from 29. August 2011

EAC extraction logfile from 21. May 2013, 21:11

Daft Punk / Random Access Memories

Used drive : Optiarc DVD RW AD-7241S Adapter: 0 ID: 0

Read mode : Secure
Utilize accurate stream : Yes
Defeat audio cache : Yes
Make use of C2 pointers : No

Read offset correction : 48
Overread into Lead-In and Lead-Out : No
Fill up missing offset samples with silence : Yes
Delete leading and trailing silent blocks : No
Null samples used in CRC calculations : Yes
Used interface : Native Win32 interface for Win NT & 2000
Gap handling : Appended to previous track

Used output format : User Defined Encoder
Selected bitrate : 1024 kBit/s
Quality : High
Add ID3 tag : No
Command line compressor : C:\Program Files (x86)\Exact Audio Copy\Flac\flac.exe
Additional command line options : -8 -V -T "ARTIST=%artist%" -T "TITLE=%title%" -T "ALBUM=%albumtitle%" -T "DATE=%year%" -T "TRACKNUMBER=%tracknr1%" -T "GENRE=%genre%" -T "PERFORMER=%albuminterpret%" -T "COMPOSER=%composer%" %haslyrics%–tag-from-file=LYRICS="%lyricsfile%"%haslyrics% -T "ALBUMARTIST=%albumartist%" -T "DISCNUMBER=%cdnumber%" -T "TOTALDISCS=%totalcds%" -T "TOTALTRACKS=%numtracks%" -T "COMMENT=%comment%" %source% -o %dest%


TOC of the extracted CD

Track | Start | Length | Start sector | End sector
––––––––––––––––––––––––––––-
1 | 0:00.00 | 4:35.18 | 0 | 20642
2 | 4:35.18 | 5:22.18 | 20643 | 44810
3 | 9:57.36 | 9:04.51 | 44811 | 85661
4 | 19:02.12 | 3:48.28 | 85662 | 102789
5 | 22:50.40 | 5:37.44 | 102790 | 128108
6 | 28:28.09 | 5:53.66 | 128109 | 154649
7 | 34:22.00 | 8:18.72 | 154650 | 192071
8 | 42:40.72 | 6:09.43 | 192072 | 219789
9 | 48:50.40 | 4:50.24 | 219790 | 241563
10 | 53:40.64 | 5:41.54 | 241564 | 267192
11 | 59:22.43 | 4:39.52 | 267193 | 288169
12 | 64:02.20 | 4:11.30 | 288170 | 307024
13 | 68:13.50 | 6:21.53 | 307025 | 335652
14 | 74:35.28 | 4:24.14 | 335653 | 355466


Track 1

Filename D:\Daft Punk - Random Access Memories (Japan) (FLAC)\01 Give Life Back to Music.wav

Pre-gap length 0:00:02.00

Peak level 100.0 %
Extraction speed 2.3 X
Track quality 99.9 %
Test CRC 6901A8B9
Copy CRC 6901A8B9
Track not present in AccurateRip database
Copy OK

Track 2

Filename D:\Daft Punk - Random Access Memories (Japan) (FLAC)\02 The Game of Love.wav

Peak level 100.0 %
Extraction speed 2.9 X
Track quality 100.0 %
Test CRC CCEBADC6
Copy CRC CCEBADC6
Track not present in AccurateRip database
Copy OK

Track 3

Filename D:\Daft Punk - Random Access Memories (Japan) (FLAC)\03 Giorgio by Moroder.wav

Peak level 100.0 %
Extraction speed 3.5 X
Track quality 100.0 %
Test CRC 399E62C4
Copy CRC 399E62C4
Track not present in AccurateRip database
Copy OK

Track 4

Filename D:\Daft Punk - Random Access Memories (Japan) (FLAC)\04 Within.wav

Peak level 100.0 %
Extraction speed 3.0 X
Track quality 99.9 %
Test CRC 8F2C7E9B
Copy CRC 8F2C7E9B
Track not present in AccurateRip database
Copy OK

Track 5

Filename D:\Daft Punk - Random Access Memories (Japan) (FLAC)\05 Instant Crush.wav

Peak level 100.0 %
Extraction speed 3.9 X
Track quality 100.0 %
Test CRC D5E3EADD
Copy CRC D5E3EADD
Track not present in AccurateRip database
Copy OK

Track 6

Filename D:\Daft Punk - Random Access Memories (Japan) (FLAC)\06 Lose Yourself to Dance.wav

Peak level 100.0 %
Extraction speed 3.8 X
Track quality 99.9 %
Test CRC 50AA5D86
Copy CRC 50AA5D86
Track not present in AccurateRip database
Copy OK

Track 7

Filename D:\Daft Punk - Random Access Memories (Japan) (FLAC)\07 Touch.wav

Peak level 100.0 %
Extraction speed 4.3 X
Track quality 99.9 %
Test CRC D52E4526
Copy CRC D52E4526
Track not present in AccurateRip database
Copy OK

Track 8

Filename D:\Daft Punk - Random Access Memories (Japan) (FLAC)\08 Get Lucky.wav

Peak level 100.0 %
Extraction speed 4.7 X
Track quality 100.0 %
Test CRC 41397857
Copy CRC 41397857
Track not present in AccurateRip database
Copy OK

Track 9

Filename D:\Daft Punk - Random Access Memories (Japan) (FLAC)\09 Beyond.wav

Peak level 100.0 %
Extraction speed 4.8 X
Track quality 100.0 %
Test CRC F71B966E
Copy CRC F71B966E
Track not present in AccurateRip database
Copy OK

Track 10

Filename D:\Daft Punk - Random Access Memories (Japan) (FLAC)\10 Motherboard.wav

Peak level 100.0 %
Extraction speed 5.1 X
Track quality 100.0 %
Test CRC EFC16CB2
Copy CRC EFC16CB2
Track not present in AccurateRip database
Copy OK

Track 11

Filename D:\Daft Punk - Random Access Memories (Japan) (FLAC)\11 Fragments of Time.wav

Peak level 100.0 %
Extraction speed 5.1 X
Track quality 100.0 %
Test CRC E6905A38
Copy CRC E6905A38
Track not present in AccurateRip database
Copy OK

Track 12

Filename D:\Daft Punk - Random Access Memories (Japan) (FLAC)\12 Doin' It Right.wav

Peak level 100.0 %
Extraction speed 5.2 X
Track quality 100.0 %
Test CRC 9D371A8B
Copy CRC 9D371A8B
Track not present in AccurateRip database
Copy OK

Track 13

Filename D:\Daft Punk - Random Access Memories (Japan) (FLAC)\13 Contact.wav

Peak level 100.0 %
Extraction speed 5.5 X
Track quality 100.0 %
Test CRC 86431E64
Copy CRC 86431E64
Track not present in AccurateRip database
Copy OK

Track 14

Filename D:\Daft Punk - Random Access Memories (Japan) (FLAC)\14 Horizon.wav

Peak level 99.4 %
Extraction speed 5.5 X
Track quality 100.0 %
Test CRC 7BA0522B
Copy CRC 7BA0522B
Track not present in AccurateRip database
Copy OK


None of the tracks are present in the AccurateRip database

No errors occurred

End of status report

–– CUETools DB Plugin V2.1.3

[CTDB TOCID: iLwasLgOtMp4a2AutF85IJ3Xdh0-] found, Submit result: iLwasLgOtMp4a2AutF85IJ3Xdh0- has been confirmed
[91917fcd] (1/1) Accurately ripped


==== Log checksum D5D3F12F3F397E2C434677F30785D15D456D6F93AF6FAEA1E3645E400B926CF5 ====

Thanks to the Original ripper Zephyr !