Subcategories

Damily - Valimbilo (2018)

Posted By: aasana
Damily - Valimbilo (2018)

Damily - Valimbilo (2018)
EAC Rip | FLAC (tracks+.cue+.log) | 46:28 min | 267 MB
World, Ethnic, African Music | Label: Bongo Joe

June 2017, France. It’s 40° both inside and outside. At Studio Black Box, in the Haut Anjou, it is as if you were there, in Madagascar. And when the tape recorders start rotating, the musicians’ imagination feeds off the guts of their music : Malagasy bush, tropical heat, red dirt, sand, drought, corn, cassava, cockcrow, mooing zebus, lambahoany (fabric), leaf hut, fotaky house (mud), dust, portable generator, music, rhum, bodies frantically dancing wether in the dark or under the blazing sun…Tsapiky.

The album shall be named Valimbilo.
Bilo is a disease which strikes one’s mental health, depression is what western societies call it. When one is diagnosed with « voany bilo », a precise medical treatment is engaged and performed without doctors, nor medicine. To vanquish bilo, one has to use music.
The sorcerer solely decides upon the “good” day (the day which gathers the most positive aspects of the astrological conjuncture) to operate: the extended family hosts a ceremony ruled by many taboos, which can last up to a few days, and in which only one remedy is applied in high dosage : some Tsapiky.
They are “doctor” musicians whom talent is source of the cure.
They play for the patient, who has to be facing the orchestra : all of their attention is focused on the bilo, dancing in the sick person’s body : It has to be awaken, seduced, surprised and attacked from every angle before it is pressured, pressured until KO, until it can’t take the it anymore, stuffed with music. Then the patient is relieved, discharged, and the ceremony is over.

During the entirety of the ceremony, the patient picks a person who helps him/her get the bilo out of his/her system, this is what we call “valimbilo”, literally “husband/wife of the bilo”

Tracklist:
01. Damily - Malay Nama
02. Damily - Aomby Mazava Loha
03. Damily - Kalitaky
04. Damily - Bekapamaky
05. Damily - Fiaina Sarotsy
06. Damily - Tsy Miroro
07. Damily - Relela
08. Damily - Mivaliky Tany Toy

Exact Audio Copy V1.3 from 2. September 2016

EAC extraction logfile from 15. June 2019, 13:04

Damily / Valimbilo

Used drive : ASUS SDRW-08U7M-U Adapter: 1 ID: 0

Read mode : Secure
Utilize accurate stream : Yes
Defeat audio cache : Yes
Make use of C2 pointers : No

Read offset correction : 6
Overread into Lead-In and Lead-Out : No
Fill up missing offset samples with silence : Yes
Delete leading and trailing silent blocks : No
Null samples used in CRC calculations : Yes
Used interface : Native Win32 interface for Win NT & 2000
Gap handling : Appended to previous track

Used output format : User Defined Encoder
Selected bitrate : 1024 kBit/s
Quality : High
Add ID3 tag : No
Command line compressor : C:\Program Files (x86)\Exact Audio Copy\Flac\flac.exe
Additional command line options : -8 -V -T "ARTIST=%artist%" -T "TITLE=%title%" -T "ALBUM=%albumtitle%" -T "DATE=%year%" -T "TRACKNUMBER=%tracknr%" -T "GENRE=%genre%" -T "PERFORMER=%albuminterpret%" -T "COMPOSER=%composer%" %haslyrics%–tag-from-file=LYRICS="%lyricsfile%"%haslyrics% -T "ALBUMARTIST=%albumartist%" -T "DISCNUMBER=%cdnumber%" -T "TOTALDISCS=%totalcds%" -T "TOTALTRACKS=%numtracks%" -T "COMMENT=%comment%" %source% -o %dest%


TOC of the extracted CD

Track | Start | Length | Start sector | End sector
––––––––––––––––––––––––––––-
1 | 0:00.00 | 8:55.63 | 0 | 40187
2 | 8:55.63 | 6:22.53 | 40188 | 68890
3 | 15:18.41 | 2:05.06 | 68891 | 78271
4 | 17:23.47 | 6:15.28 | 78272 | 106424
5 | 23:39.00 | 4:21.18 | 106425 | 126017
6 | 28:00.18 | 6:13.60 | 126018 | 154052
7 | 34:14.03 | 5:35.15 | 154053 | 179192
8 | 39:49.18 | 6:39.06 | 179193 | 209123


Track 1

Filename C:\EAC\Damily - Valimbilo - 2018 - FLAC - CD\01. Malay Nama.wav

Pre-gap length 0:00:02.00

Peak level 100.0 %
Extraction speed 1.2 X
Track quality 99.9 %
Test CRC CF330DD0
Copy CRC CF330DD0
Accurately ripped (confidence 1) [0316FB90] (AR v2)
Copy OK

Track 2

Filename C:\EAC\Damily - Valimbilo - 2018 - FLAC - CD\02. Aomby Mazava Loha.wav

Pre-gap length 0:00:01.38

Peak level 100.0 %
Extraction speed 1.5 X
Track quality 100.0 %
Test CRC 7EDB3944
Copy CRC 7EDB3944
Accurately ripped (confidence 1) [CF177F1A] (AR v2)
Copy OK

Track 3

Filename C:\EAC\Damily - Valimbilo - 2018 - FLAC - CD\03. Kalitaky.wav

Peak level 91.7 %
Extraction speed 1.4 X
Track quality 100.0 %
Test CRC 34B7E4A7
Copy CRC 34B7E4A7
Accurately ripped (confidence 1) [8A8959CC] (AR v2)
Copy OK

Track 4

Filename C:\EAC\Damily - Valimbilo - 2018 - FLAC - CD\04. Bekapamaky.wav

Peak level 100.0 %
Extraction speed 1.7 X
Track quality 100.0 %
Test CRC 6C1569E2
Copy CRC 6C1569E2
Accurately ripped (confidence 1) [6087FEF1] (AR v2)
Copy OK

Track 5

Filename C:\EAC\Damily - Valimbilo - 2018 - FLAC - CD\05. Fiaina Sarotsy.wav

Peak level 77.6 %
Extraction speed 1.6 X
Track quality 99.9 %
Test CRC 30536764
Copy CRC 30536764
Accurately ripped (confidence 1) [77C305BC] (AR v2)
Copy OK

Track 6

Filename C:\EAC\Damily - Valimbilo - 2018 - FLAC - CD\06. Tsy Miroro.wav

Peak level 100.0 %
Extraction speed 1.8 X
Track quality 99.9 %
Test CRC A25A2FE3
Copy CRC A25A2FE3
Accurately ripped (confidence 1) [60486C66] (AR v2)
Copy OK

Track 7

Filename C:\EAC\Damily - Valimbilo - 2018 - FLAC - CD\07. Relela.wav

Peak level 100.0 %
Extraction speed 2.0 X
Track quality 100.0 %
Test CRC 9E8A4A4F
Copy CRC 9E8A4A4F
Accurately ripped (confidence 1) [AB335A04] (AR v2)
Copy OK

Track 8

Filename C:\EAC\Damily - Valimbilo - 2018 - FLAC - CD\08. Mivaliky Tany Toy.wav

Pre-gap length 0:00:01.01

Peak level 100.0 %
Extraction speed 2.0 X
Track quality 99.9 %
Test CRC 0B265C5F
Copy CRC 0B265C5F
Accurately ripped (confidence 1) [A29332A6] (AR v2)
Copy OK


All tracks accurately ripped

No errors occurred

End of status report

–– CUETools DB Plugin V2.1.6

[CTDB TOCID: CGYSFkk3v3GUMh_LOHXkZIqk3hA-] found
Submit result: CGYSFkk3v3GUMh_LOHXkZIqk3hA- has been confirmed
Track | CTDB Status
1 | (4/4) Accurately ripped
2 | (4/4) Accurately ripped
3 | (4/4) Accurately ripped
4 | (4/4) Accurately ripped
5 | (4/4) Accurately ripped
6 | (4/4) Accurately ripped
7 | (4/4) Accurately ripped
8 | (4/4) Accurately ripped


==== Log checksum 34CB83A2158D7E66EAB925ADF20C2F6BA6C9B49FBD24EA1E0F8F17DF11C7375F ====