Subcategories

Dave Brubeck Quartet Featuring Paul Desmond - Jazz At Storyville (1952/1986)

Posted By: Domestos
Dave Brubeck Quartet Featuring Paul Desmond - Jazz At Storyville (1952/1986)

Dave Brubeck Quartet Featuring Paul Desmond - Jazz At Storyville (1952/1986)
EAC Rip | FLAC (image+.cue, log) ~ 199.90 Mb | 38:39 | Scans included (back+cd)
Mainstream Jazz / Cool | Country: USA | Label: Fantasy - VDJ 1596

It was early Sunday afternoon, October 2, 1952, at George Wein's Storyville in Boston, Wyatt Ruther, who was then bassist for Brubeck, was unable to make the first set and Dave, Paul Desmond and drummer Lloyd Davis began to experiment in a mildly curious way. The bulk of the audience had not yet arrived and so they were playing entirely for and between themselves.

Alto Saxophone – Paul Desmond
Bass – Ron Crotty
Drums – Lloyd Davis (2)
Engineer – Eddie Collins, Fred Taylor
Liner Notes – Nat Hentoff
Piano – Dave Brubeck
Producer – Charles Bourgeois

Track List:
1 Over The Rainbow 5:05
2 You Go To My Head 7:55
3 Crazy Chris 6:45
4 Give A Little Whistle 2:40
5 Lady Be Good 4:09
6 Tea For Two 6:51
7 This Can't Be Love 4:13

Dave Brubeck Quartet Featuring Paul Desmond - Jazz At Storyville (1952/1986)

Exact Audio Copy V1.0 beta 6 from 9. April 2015

Отчёт EAC об извлечении, выполненном 30. января 2018, 23:51

Brubeck & Desmond / Jazz at Storyville

Дисковод: MATSHITADVD-RAM UJ8B1AS Adapter: 1 ID: 0

Режим чтения : Достоверность
Использование точного потока : Да
Отключение кэша аудио : Да
Использование указателей C2 : Нет

Коррекция смещения при чтении : 6
Способность читать области Lead-in и Lead-out : Нет
Заполнение пропущенных сэмплов тишиной : Да
Удаление блоков с тишиной в начале и конце : Нет
При вычислениях CRC использовались нулевые сэмплы : Да
Интерфейс : Встроенный Win32-интерфейс для Win NT/2000

Выходной формат : Пользовательский кодировщик
Выбранный битрейт : 128 kBit/s
Качество : Высокий
Добавление ID3-тега : Нет
Утилита сжатия : C:\Program Files (x86)\Exact Audio Copy\Flac\flac.exe
Дополнительные параметры : -V -8 -T "Date=%year%" -T "Genre=%genre%" %source%

TOC извлечённого CD

Трек | Старт | Длительность | Начальный сектор | Конечный сектор
––––––––––––––––––––––––––––––––––-
1 | 0:00.37 | 5:06.08 | 37 | 22994
2 | 5:06.45 | 7:51.20 | 22995 | 58339
3 | 12:57.65 | 6:55.20 | 58340 | 89484
4 | 19:53.10 | 4:09.55 | 89485 | 108214
5 | 24:02.65 | 7:02.17 | 108215 | 139881
6 | 31:05.07 | 15:01.00 | 139882 | 207456
7 | 46:06.07 | 7:00.53 | 207457 | 239009

Характеристики диапазона извлечения и сообщения об ошибках

Выбранный диапазон

Имя файла C:\Users\Alex\Downloads\Brubeck & Desmond - Jazz at Storyville\Brubeck & Desmond - Jazz at Storyville.wav

Пиковый уровень 95.6 %
Скорость извлечения 2.1 X
Качество диапазона 100.0 %
CRC теста 0B9F546B
CRC копии 0B9F546B
Копирование… OK

Ошибок не произошло

AccurateRip: сводка

Трек 1 : извлечено точно (доверие 1) [096DB152] (AR v2)
Трек 2 : извлечено точно (доверие 1) [ECD9085C] (AR v2)
Трек 3 : извлечено точно (доверие 1) [BB41DA4E] (AR v2)
Трек 4 : извлечено точно (доверие 1) [8F51FB0A] (AR v2)
Трек 5 : извлечено точно (доверие 1) [666369F2] (AR v2)
Трек 6 : извлечено точно (доверие 1) [F82B3CC1] (AR v2)
Трек 7 : извлечено точно (доверие 1) [13270315] (AR v2)

Все треки извлечены точно

Конец отчёта

==== Контрольная сумма отчёта E8FA5E3555CFE3A9B85CB06016A73F78D384932D1A21AA363477FE36FA0B6FB2 ====

All thanks go to the fasty12

More Music in My Blog
Follow My RSS Channel