Dave Pell - I Had The Craziest Dream (1955-57) {Capitol} + A Pell Of A Time (1957) {RCA}

Posted By: ruskaval
Dave Pell - I Had The Craziest Dream (1955-57) {Capitol} + A Pell Of A Time (1957) {RCA}

Dave Pell - I Had The Craziest Dream (1955-57) {Capitol} + A Pell Of A Time (1957) {RCA}
EAC rip (secure mode) | FLAC (tracks)+CUE+LOG -> 582 Mb | MP3 @320 -> 230 Mb
Full Artwork @ 600 dpi (jpg) -> 74 Mb | 5% repair rar
© 1995, 1998 Capitol / RCA / BMG | ND 74408 / 7243 4 95445 2 9
Jazz / Cool / West Coast Jazz / Saxophone

The Dave Pell Octet was the epitome of mid-'50s West Coast jazz. With its tight arrangements, concise performances (usually around three minutes long despite the rise of the LP), soft tones, and distinctive brand of restrained swing, Pell's ensemble was a perfect representative of cool jazz. The ensemble originally was part of the Les Brown Big Band, gaining an independent life of its own in 1955. This valuable reissue CD from 1998 has all of the first 13 selections that Pell recorded for Capitol – eight from 1955 and the remainder from 1957 – plus four titles (one previously unissued) led by trumpeter Don Fagerquist with a similar band in 1955 (one of only two opportunities that the underrated great had to head his own date).

Dave Pell - I Had The Craziest Dream (1955-57) {Capitol} + A Pell Of A Time (1957) {RCA}

Dave Pell - I Had The Craziest Dream (1955-57) {1998 Capitol SBM Remaster}
EAC rip (secure mode) | FLAC (tracks)+CUE+LOG -> 329 Mb | MP3 @320 -> 123 Mb
Full Artwork @ 600 dpi (jpg) -> 47 Mb | 5% repair rar
© 1998 Capitol Records | 7243 4 95445 2 9

Dave Pell's four-horn, four-rhythm group includes Fagerquist, either Bob Gordon or Ronny Lang on baritone, the leader on tenor, trombonist Ray Sims, guitarist Tony Rizzi, pianist Paul Smith, drummer Jack Sperling, and one of three bassists. The Fagerquist group differs in that, instead of a trombone, he featured three tenors (Pell, Zoot Sims, and Bill Holman). The arrangements (by Marty Paich, Wes Hensel, Shorty Rogers, Bill Holman, Jack Montrose, and Andre Previn) put an emphasis on melody, subtle surprises, and light swing, even at faster tempos. Basic originals alternate with updated versions of standards (mostly from the swing era). Of the soloists, Fagerquist and Rizzi come off best, although Pell also fares quite well. Although this style of West Coast jazz is largely extinct decades later (other than the notable Phil Norman Tentet), the music still sounds quite fresh and timeless. The Dave Pell Octet's many other recordings (for Trend, Kapp, Atlantic, Victor, and Coral) are out of print, so grab this valuable CD while you can.

Personnel: Dave Pell (tenor saxophone); Vernon Polk, Tony Rizzi (guitar); Zoot Sims, Bill Holman (tenor saxophone); Bob Gordon, Ronnie Lang (baritone saxophone); Don Fagerquist (trumpet); Ray Sims (trombone); Donn Trenner, Paul Smith (piano); Jack Sperling, Bill Richmond (drums); Roy Harte (bongos); Joe Mondragon, Ralph Pena, Rolly Bundock (bass) etc…

tracklist:
01. I Had The Craziest Dream
02. Jazz Wagner
03. Mike's Peak
04. Poopsie
05. Star Eyes
06. Klump Jump
07. My Heart Belongs To Daddy
08. On The Good Ship Lollipop
09. The Way You Look Tonight
10. Nap's Dream
11. Time After Time
12. Crescendo Date
13. People In Love
14. The Way You Look Tonight
15. The Man I Love
16. Love Is Just Around The Corner
17. Play, Fiddle, Play

Exact Audio Copy V1.0 beta 3 from 29. August 2011

EAC extraction logfile from 1. June 2013, 0:20

Dave Pell / I Had The Craziest Dream

Used drive : ATAPI iHAS124 B Adapter: 4 ID: 0

Read mode : Secure
Utilize accurate stream : Yes
Defeat audio cache : Yes
Make use of C2 pointers : No

Read offset correction : 6
Overread into Lead-In and Lead-Out : No
Fill up missing offset samples with silence : Yes
Delete leading and trailing silent blocks : No
Null samples used in CRC calculations : Yes
Used interface : Native Win32 interface for Win NT & 2000
Gap handling : Appended to previous track

Used output format : User Defined Encoder
Selected bitrate : 1024 kBit/s
Quality : High
Add ID3 tag : No
Command line compressor : C:\Program Files (x86)\FLAC\flac.exe
Additional command line options : -8 -V -T "ARTIST=%artist%" -T "TITLE=%title%" -T "ALBUM=%albumtitle%" -T "DATE=%year%" -T "TRACKNUMBER=%tracknr%" -T "TOTALTRACKS=%numtracks%" -T "GENRE=%genre%" -T "ALBUMARTIST=%albumartist%" -T "ALBUM ARTIST=%albumartist%" -T "COMMENT=EAC Secure Mode, Test & Copy, AccurateRip, FLAC -8" %source%


TOC of the extracted CD

Track | Start | Length | Start sector | End sector
––––––––––––––––––––––––––––-
1 | 0:00.00 | 2:52.13 | 0 | 12912
2 | 2:52.13 | 3:27.55 | 12913 | 28492
3 | 6:19.68 | 2:27.42 | 28493 | 39559
4 | 8:47.35 | 2:39.65 | 39560 | 51549
5 | 11:27.25 | 2:56.05 | 51550 | 64754
6 | 14:23.30 | 2:47.15 | 64755 | 77294
7 | 17:10.45 | 2:44.18 | 77295 | 89612
8 | 19:54.63 | 2:09.12 | 89613 | 99299
9 | 22:04.00 | 2:22.60 | 99300 | 110009
10 | 24:26.60 | 5:12.58 | 110010 | 133467
11 | 29:39.43 | 3:12.32 | 133468 | 147899
12 | 32:52.00 | 3:48.63 | 147900 | 165062
13 | 36:40.63 | 2:40.62 | 165063 | 177124
14 | 39:21.50 | 3:32.18 | 177125 | 193042
15 | 42:53.68 | 3:22.02 | 193043 | 208194
16 | 46:15.70 | 3:36.65 | 208195 | 224459
17 | 49:52.60 | 2:37.30 | 224460 | 236264


Track 1

Filename C:\Dave Pell - I Had The Craziest Dream (1955-57) {1998 Capitol SBM Remaster}\01 - I Had The Craziest Dream.wav

Pre-gap length 0:00:02.00

Peak level 96.9 %
Extraction speed 3.6 X
Track quality 100.0 %
Test CRC 2B9940F1
Copy CRC 2B9940F1
Accurately ripped (confidence 1) [F5632106] (AR v1)
Copy OK

Track 2

Filename C:\Dave Pell - I Had The Craziest Dream (1955-57) {1998 Capitol SBM Remaster}\02 - Jazz Wagner.wav

Peak level 98.8 %
Extraction speed 4.0 X
Track quality 100.0 %
Test CRC C5A74076
Copy CRC C5A74076
Accurately ripped (confidence 1) [63554AE9] (AR v1)
Copy OK

Track 3

Filename C:\Dave Pell - I Had The Craziest Dream (1955-57) {1998 Capitol SBM Remaster}\03 - Mike's Peak.wav

Peak level 98.8 %
Extraction speed 4.0 X
Track quality 100.0 %
Test CRC 99CC3FD1
Copy CRC 99CC3FD1
Accurately ripped (confidence 1) [836AB022] (AR v1)
Copy OK

Track 4

Filename C:\Dave Pell - I Had The Craziest Dream (1955-57) {1998 Capitol SBM Remaster}\04 - Poopsie.wav

Peak level 98.8 %
Extraction speed 4.3 X
Track quality 100.0 %
Test CRC DC26BB97
Copy CRC DC26BB97
Accurately ripped (confidence 1) [F513AC5C] (AR v1)
Copy OK

Track 5

Filename C:\Dave Pell - I Had The Craziest Dream (1955-57) {1998 Capitol SBM Remaster}\05 - Star Eyes.wav

Peak level 97.1 %
Extraction speed 4.6 X
Track quality 100.0 %
Test CRC 2DC266AF
Copy CRC 2DC266AF
Accurately ripped (confidence 1) [193FA747] (AR v1)
Copy OK

Track 6

Filename C:\Dave Pell - I Had The Craziest Dream (1955-57) {1998 Capitol SBM Remaster}\06 - Klump Jump.wav

Pre-gap length 0:00:00.01

Peak level 98.8 %
Extraction speed 4.7 X
Track quality 100.0 %
Test CRC 76DB382C
Copy CRC 76DB382C
Accurately ripped (confidence 1) [DA04981E] (AR v1)
Copy OK

Track 7

Filename C:\Dave Pell - I Had The Craziest Dream (1955-57) {1998 Capitol SBM Remaster}\07 - My Heart Belongs To Daddy.wav

Peak level 98.7 %
Extraction speed 4.9 X
Track quality 100.0 %
Test CRC 703B0F02
Copy CRC 703B0F02
Accurately ripped (confidence 1) [EA18BD06] (AR v1)
Copy OK

Track 8

Filename C:\Dave Pell - I Had The Craziest Dream (1955-57) {1998 Capitol SBM Remaster}\08 - On The Good Ship Lollipop.wav

Peak level 98.2 %
Extraction speed 3.3 X
Track quality 99.9 %
Test CRC 365C0934
Copy CRC 365C0934
Accurately ripped (confidence 1) [DFF13892] (AR v1)
Copy OK

Track 9

Filename C:\Dave Pell - I Had The Craziest Dream (1955-57) {1998 Capitol SBM Remaster}\09 - The Way You Look Tonight.wav

Peak level 98.8 %
Extraction speed 5.0 X
Track quality 100.0 %
Test CRC 6C2F12E0
Copy CRC 6C2F12E0
Accurately ripped (confidence 1) [E8544BF5] (AR v1)
Copy OK

Track 10

Filename C:\Dave Pell - I Had The Craziest Dream (1955-57) {1998 Capitol SBM Remaster}\10 - Nap's Dream.wav

Peak level 98.8 %
Extraction speed 5.9 X
Track quality 100.0 %
Test CRC AC87ACEE
Copy CRC AC87ACEE
Accurately ripped (confidence 1) [BD107F64] (AR v1)
Copy OK

Track 11

Filename C:\Dave Pell - I Had The Craziest Dream (1955-57) {1998 Capitol SBM Remaster}\11 - Time After Time.wav

Peak level 98.8 %
Extraction speed 5.8 X
Track quality 100.0 %
Test CRC 8F4313F8
Copy CRC 8F4313F8
Accurately ripped (confidence 1) [BF65B9F6] (AR v1)
Copy OK

Track 12

Filename C:\Dave Pell - I Had The Craziest Dream (1955-57) {1998 Capitol SBM Remaster}\12 - Crescendo Date.wav

Peak level 98.8 %
Extraction speed 6.1 X
Track quality 100.0 %
Test CRC 5FE9667A
Copy CRC 5FE9667A
Accurately ripped (confidence 1) [CFBC1C76] (AR v1)
Copy OK

Track 13

Filename C:\Dave Pell - I Had The Craziest Dream (1955-57) {1998 Capitol SBM Remaster}\13 - People In Love.wav

Peak level 88.5 %
Extraction speed 5.8 X
Track quality 100.0 %
Test CRC 56521778
Copy CRC 56521778
Accurately ripped (confidence 1) [D9C9393E] (AR v1)
Copy OK

Track 14

Filename C:\Dave Pell - I Had The Craziest Dream (1955-57) {1998 Capitol SBM Remaster}\14 - The Way You Look Tonight.wav

Peak level 95.6 %
Extraction speed 6.3 X
Track quality 100.0 %
Test CRC 084D25FC
Copy CRC 084D25FC
Accurately ripped (confidence 1) [8A423F4D] (AR v1)
Copy OK

Track 15

Filename C:\Dave Pell - I Had The Craziest Dream (1955-57) {1998 Capitol SBM Remaster}\15 - The Man I Love.wav

Peak level 81.7 %
Extraction speed 6.4 X
Track quality 100.0 %
Test CRC 512BB330
Copy CRC 512BB330
Accurately ripped (confidence 1) [EF31EBB4] (AR v1)
Copy OK

Track 16

Filename C:\Dave Pell - I Had The Craziest Dream (1955-57) {1998 Capitol SBM Remaster}\16 - Love Is Just Around The Corner.wav

Peak level 91.9 %
Extraction speed 6.8 X
Track quality 100.0 %
Test CRC 637745AC
Copy CRC 637745AC
Accurately ripped (confidence 1) [4AF8500A] (AR v1)
Copy OK

Track 17

Filename C:\Dave Pell - I Had The Craziest Dream (1955-57) {1998 Capitol SBM Remaster}\17 - Play, Fiddle, Play.wav

Peak level 98.4 %
Extraction speed 4.7 X
Track quality 99.9 %
Test CRC 8B6F54FD
Copy CRC 8B6F54FD
Accurately ripped (confidence 1) [1147B24A] (AR v1)
Copy OK


All tracks accurately ripped

No errors occurred

End of status report

==== Log checksum 4C9FED532356753CC651B0910C720EE9ABC92806D97459DA50C01E71EAFEEEFB ====


Dave Pell - I Had The Craziest Dream (1955-57) {Capitol} + A Pell Of A Time (1957) {RCA}

Dave Pell - I Had The Craziest Dream (1955-57) {Capitol} + A Pell Of A Time (1957) {RCA}



–––––––––––––––-
Dave Pell - I Had The Craziest Dream (1955-57) {Capitol} + A Pell Of A Time (1957) {RCA}

Dave Pell - A Pell Of A Time (1957) {1995 RCA Remaster}
EAC rip (secure mode) | FLAC (tracks)+CUE+LOG -> 253 Mb | MP3 @320 -> 106 Mb
Full Artwork @ 600 dpi (jpg) -> 27 Mb | 5% repair rar
© 1995 RCA / BMG | ND 74408

The Dave Pell Octet was one of the great cool jazz bands of the mid- to late '50s. This fairly rare LP found Pell altering the personnel greatly, with Pell and pianist/arranger Marty Paich being the only holdovers. In addition, the arrangements of Paich, Bill Holman, Paul Moer (who, like trombonist Ray Sims, is a substitute on three songs), and Jack Montrose are opened up, and the musicians take much longer solos than on Pell's earlier albums. With trumpeter Jack Sheldon often starring and there being some excellent spots for baritonist Pepper Adams, this is a rather different album by The Dave Pell Octet, a bit harder-charging and more hard bop-oriented while still retaining the identity of the original group. Worth searching for.

Personnel:
Dave Pell - tenor sax
Jack Sheldon - trumpet
Bobby Burgess - trombone
Pepper Adams - baritone sax
Marty Paich - piano
Tommy Tedesco - guitar
Tom Kelly - bass
Mel Lewis - drums
Shorty Rogers - supervision

tracklist:
01. Jazz Goes To Siwash
02. Suze Blues
03. Grey Flannel
04. Angel Eyes
05. G Tune
06. Sandy Shoes
07. Cameo
08. Love Me Or Leave Me
09. Them There Eyes

Exact Audio Copy V1.0 beta 3 from 29. August 2011

EAC extraction logfile from 1. June 2013, 0:56

Dave Pell / A Pell Of A Time

Used drive : ATAPI iHAS124 B Adapter: 4 ID: 0

Read mode : Secure
Utilize accurate stream : Yes
Defeat audio cache : Yes
Make use of C2 pointers : No

Read offset correction : 6
Overread into Lead-In and Lead-Out : No
Fill up missing offset samples with silence : Yes
Delete leading and trailing silent blocks : No
Null samples used in CRC calculations : Yes
Used interface : Native Win32 interface for Win NT & 2000
Gap handling : Appended to previous track

Used output format : User Defined Encoder
Selected bitrate : 1024 kBit/s
Quality : High
Add ID3 tag : No
Command line compressor : C:\Program Files (x86)\FLAC\flac.exe
Additional command line options : -8 -V -T "ARTIST=%artist%" -T "TITLE=%title%" -T "ALBUM=%albumtitle%" -T "DATE=%year%" -T "TRACKNUMBER=%tracknr%" -T "TOTALTRACKS=%numtracks%" -T "GENRE=%genre%" -T "ALBUMARTIST=%albumartist%" -T "ALBUM ARTIST=%albumartist%" -T "COMMENT=EAC Secure Mode, Test & Copy, AccurateRip, FLAC -8" %source%


TOC of the extracted CD

Track | Start | Length | Start sector | End sector
––––––––––––––––––––––––––––-
1 | 0:00.00 | 4:31.25 | 0 | 20349
2 | 4:31.25 | 3:07.00 | 20350 | 34374
3 | 7:38.25 | 6:41.00 | 34375 | 64449
4 | 14:19.25 | 5:38.00 | 64450 | 89799
5 | 19:57.25 | 2:42.00 | 89800 | 101949
6 | 22:39.25 | 5:18.00 | 101950 | 125799
7 | 27:57.25 | 4:11.00 | 125800 | 144624
8 | 32:08.25 | 7:14.00 | 144625 | 177174
9 | 39:22.25 | 5:19.00 | 177175 | 201099


Track 1

Filename C:\Dave Pell - A Pell Of A Time (1957) {1995 RCA Remaster}\01 - Jazz Goes To Siwash.wav

Pre-gap length 0:00:02.00

Peak level 100.0 %
Extraction speed 4.0 X
Track quality 100.0 %
Test CRC BF9FC8DA
Copy CRC BF9FC8DA
Track not present in AccurateRip database
Copy OK

Track 2

Filename C:\Dave Pell - A Pell Of A Time (1957) {1995 RCA Remaster}\02 - Suze Blues.wav

Peak level 83.0 %
Extraction speed 4.1 X
Track quality 100.0 %
Test CRC DC6B41F3
Copy CRC DC6B41F3
Track not present in AccurateRip database
Copy OK

Track 3

Filename C:\Dave Pell - A Pell Of A Time (1957) {1995 RCA Remaster}\03 - Grey Flannel.wav

Peak level 74.7 %
Extraction speed 4.9 X
Track quality 100.0 %
Test CRC 20C07531
Copy CRC 20C07531
Track not present in AccurateRip database
Copy OK

Track 4

Filename C:\Dave Pell - A Pell Of A Time (1957) {1995 RCA Remaster}\04 - Angel Eyes.wav

Peak level 81.4 %
Extraction speed 4.5 X
Track quality 99.9 %
Test CRC 0FDCB5D6
Copy CRC 0FDCB5D6
Track not present in AccurateRip database
Copy OK

Track 5

Filename C:\Dave Pell - A Pell Of A Time (1957) {1995 RCA Remaster}\05 - G Tune.wav

Peak level 86.4 %
Extraction speed 3.7 X
Track quality 99.9 %
Test CRC 278AD20C
Copy CRC 278AD20C
Track not present in AccurateRip database
Copy OK

Track 6

Filename C:\Dave Pell - A Pell Of A Time (1957) {1995 RCA Remaster}\06 - Sandy Shoes.wav

Peak level 81.7 %
Extraction speed 5.8 X
Track quality 100.0 %
Test CRC 45C64123
Copy CRC 45C64123
Track not present in AccurateRip database
Copy OK

Track 7

Filename C:\Dave Pell - A Pell Of A Time (1957) {1995 RCA Remaster}\07 - Cameo.wav

Peak level 66.5 %
Extraction speed 4.7 X
Track quality 99.9 %
Test CRC B43CC03C
Copy CRC B43CC03C
Track not present in AccurateRip database
Copy OK

Track 8

Filename C:\Dave Pell - A Pell Of A Time (1957) {1995 RCA Remaster}\08 - Love Me Or Leave Me.wav

Peak level 67.5 %
Extraction speed 6.6 X
Track quality 100.0 %
Test CRC 499E219B
Copy CRC 499E219B
Track not present in AccurateRip database
Copy OK

Track 9

Filename C:\Dave Pell - A Pell Of A Time (1957) {1995 RCA Remaster}\09 - Them There Eyes.wav

Peak level 74.1 %
Extraction speed 6.8 X
Track quality 100.0 %
Test CRC 9220E4E7
Copy CRC 9220E4E7
Track not present in AccurateRip database
Copy OK


None of the tracks are present in the AccurateRip database

No errors occurred

End of status report

==== Log checksum 5A8D1AD108D8FA3B0A6710605EEF5B8039B6CA97CB122B050F75D7438C747CA8 ====


Dave Pell - I Had The Craziest Dream (1955-57) {Capitol} + A Pell Of A Time (1957) {RCA}

Dave Pell - I Had The Craziest Dream (1955-57) {Capitol} + A Pell Of A Time (1957) {RCA}


Thanks to CraZZ (artwork)!


Dave Pell - I Had The Craziest Dream (1955-57) {1998 Capitol SBM Remaster}

UPLOADED Linkz

BITSHARE Linkz



Dave Pell - A Pell Of A Time (1957) {1995 RCA Remaster}

UPLOADED Linkz

BITSHARE Linkz