Subcategories

David Byrne - American Utopia on Broadway (Original Cast Recording Live) (2019)

Posted By: delpotro
David Byrne - American Utopia on Broadway (Original Cast Recording Live) (2019)

David Byrne - American Utopia on Broadway (Original Cast Recording Live) (2019)
EAC Rip | FLAC (tracks+log+.cue) | Covers included | 01:30:40 | 646 Mb
Pop Rock, Soundtrack | Label: Nonesuch Records

The cast album for the critically acclaimed Broadway production of David Byrne’s American Utopia, with music and lyrics by David Byrne, is now available on a double CD, following its recent digital release.

"Dazzling, rapturous and jubilant," exclaims the New York Times of the show. "Byrne puts the central tenet of making contact with a world outside your mind into dynamic, sensory practice onstage." “Gorgeously designed, deliciously fun,” says the New Yorker, “backed by a rangy, versatile, exuberant band … Most important, the songs sound great.” "Astonishing," raves Hollywood Reporter. "A knockout celebration of music, dance and song. Pure bliss." "A heady swirl of hope for our anxious times," says Rolling Stone. "The concert-theater-dance spectacle finds solace in human connections … a tonic for our tumultuous times…"

American Utopia began as an album, also released by Nonesuch, which received a Grammy nomination and was the first by Byrne to reach #1 on the Album Chart; it was also his first to reach the Top Five on the Billboard 200 chart. The concert tour in support of American Utopia, which inspired the Broadway show, included songs from the new album along with music from Talking Heads and Byrne’s solo career. Byrne and the ensemble performed more than 150 dates in twenty-seven countries over nine months. The British publication NME said it “may just be the best live show of all time.”
Tracklist:
Disc 1 (41:54)
1. Here (Live) (04:18)
2. I Know Sometimes a Man Is Wrong / Don't Worry About the Government (Live) (04:26)
3. Lazy (Live) (04:33)
4. This Must Be the Place (Naïve Melody) [Live] (04:56)
5. I Zimbra (Live) (03:08)
6. Slippery People (Live) (04:48)
7. I Should Watch TV (Live) (03:15)
8. Everybody's Coming to My House (Live) (03:46)
9. Once in a Lifetime (Live) (05:33)
10. Glass, Concrete & Stone (Live) (03:11)

Disc 2 (48:35)
1. Toe Jam (Live) (03:39)
2. Born Under Punches (The Heat Goes On) [Live] (05:00)
3. I Dance like This (Live) (03:58)
4. Bullet (Live) (03:30)
5. Every Day Is a Miracle (Live) (04:54)
6. Blind (Live) (05:11)
7. Burning Down the House (Live) (04:16)
8. Hell You Talmbout (Live) (04:15)
9. One Fine Day (Live) (03:36)
10. Road to Nowhere (Live) (04:30)
11. The Great Curve (Live) [Bonus Track]) (05:46)

Exact Audio Copy V1.3 from 2. September 2016

EAC extraction logfile from 9. December 2019, 20:26

David Byrne / American Utopia on Broadway (Original Cast Recording)

Used drive : PLEXTOR PX-891SAF Adapter: 1 ID: 0

Read mode : Secure
Utilize accurate stream : Yes
Defeat audio cache : Yes
Make use of C2 pointers : No

Read offset correction : 6
Overread into Lead-In and Lead-Out : No
Fill up missing offset samples with silence : Yes
Delete leading and trailing silent blocks : No
Null samples used in CRC calculations : Yes
Used interface : Native Win32 interface for Win NT & 2000
Gap handling : Appended to previous track

Used output format : User Defined Encoder
Selected bitrate : 1024 kBit/s
Quality : High
Add ID3 tag : No
Command line compressor : C:\Program Files (x86)\Exact Audio Copy\Flac\flac.exe
Additional command line options : -8 -V -T "ARTIST=%artist%" -T "TITLE=%title%" -T "ALBUM=%albumtitle%" -T "DATE=%year%" -T "TRACKNUMBER=%tracknr%" -T "GENRE=%genre%" -T "PERFORMER=%albuminterpret%" -T "COMPOSER=%composer%" %haslyrics%–tag-from-file=LYRICS="%lyricsfile%"%haslyrics% -T "ALBUMARTIST=%albumartist%" -T "DISCNUMBER=%cdnumber%" -T "TOTALDISCS=%totalcds%" -T "TOTALTRACKS=%numtracks%" -T "COMMENT=%comment%" %source% -o %dest%


TOC of the extracted CD

Track | Start | Length | Start sector | End sector
––––––––––––––––––––––––––––-
1 | 0:00.00 | 4:18.60 | 0 | 19409
2 | 4:18.60 | 4:26.53 | 19410 | 39412
3 | 8:45.38 | 4:33.39 | 39413 | 59926
4 | 13:19.02 | 4:56.32 | 59927 | 82158
5 | 18:15.34 | 3:08.21 | 82159 | 96279
6 | 21:23.55 | 4:48.53 | 96280 | 117932
7 | 26:12.33 | 3:15.41 | 117933 | 132598
8 | 29:27.74 | 3:46.14 | 132599 | 149562
9 | 33:14.13 | 5:33.69 | 149563 | 174606
10 | 38:48.07 | 3:11.66 | 174607 | 188997


Track 1

Filename D:\#cdr\#wav+flac\David Byrne - American Utopia on Broadway (Original Cast Recording)\cd 1\01. David Byrne - Here (Live).wav

Pre-gap length 0:00:02.00

Peak level 100.0 %
Extraction speed 5.2 X
Track quality 100.0 %
Test CRC 2D4F8704
Copy CRC 2D4F8704
Track not present in AccurateRip database
Copy OK

Track 2

Filename D:\#cdr\#wav+flac\David Byrne - American Utopia on Broadway (Original Cast Recording)\cd 1\02. David Byrne - I Know Sometimes a Man Is Wrong - Don't Worry About the Government (Live).wav

Peak level 100.0 %
Extraction speed 5.8 X
Track quality 100.0 %
Test CRC 612075D8
Copy CRC 612075D8
Track not present in AccurateRip database
Copy OK

Track 3

Filename D:\#cdr\#wav+flac\David Byrne - American Utopia on Broadway (Original Cast Recording)\cd 1\03. David Byrne - Lazy (Live).wav

Peak level 100.0 %
Extraction speed 5.4 X
Track quality 99.9 %
Test CRC FC24E84D
Copy CRC FC24E84D
Track not present in AccurateRip database
Copy OK

Track 4

Filename D:\#cdr\#wav+flac\David Byrne - American Utopia on Broadway (Original Cast Recording)\cd 1\04. David Byrne - This Must Be the Place (Naïve Melody) [Live].wav

Peak level 100.0 %
Extraction speed 7.2 X
Track quality 100.0 %
Test CRC D39DC3C7
Copy CRC D39DC3C7
Track not present in AccurateRip database
Copy OK

Track 5

Filename D:\#cdr\#wav+flac\David Byrne - American Utopia on Broadway (Original Cast Recording)\cd 1\05. David Byrne - I Zimbra (Live).wav

Peak level 100.0 %
Extraction speed 7.2 X
Track quality 100.0 %
Test CRC D3937B0C
Copy CRC D3937B0C
Track not present in AccurateRip database
Copy OK

Track 6

Filename D:\#cdr\#wav+flac\David Byrne - American Utopia on Broadway (Original Cast Recording)\cd 1\06. David Byrne - Slippery People (Live).wav

Peak level 99.9 %
Extraction speed 7.7 X
Track quality 100.0 %
Test CRC D8D6D95D
Copy CRC D8D6D95D
Track not present in AccurateRip database
Copy OK

Track 7

Filename D:\#cdr\#wav+flac\David Byrne - American Utopia on Broadway (Original Cast Recording)\cd 1\07. David Byrne - I Should Watch TV (Live).wav

Peak level 100.0 %
Extraction speed 6.1 X
Track quality 99.9 %
Test CRC 0B628CC0
Copy CRC 0B628CC0
Track not present in AccurateRip database
Copy OK

Track 8

Filename D:\#cdr\#wav+flac\David Byrne - American Utopia on Broadway (Original Cast Recording)\cd 1\08. David Byrne - Everybody's Coming to My House (Live).wav

Peak level 100.0 %
Extraction speed 8.1 X
Track quality 100.0 %
Test CRC EDEA106D
Copy CRC EDEA106D
Track not present in AccurateRip database
Copy OK

Track 9

Filename D:\#cdr\#wav+flac\David Byrne - American Utopia on Broadway (Original Cast Recording)\cd 1\09. David Byrne - Once in a Lifetime (Live).wav

Peak level 100.0 %
Extraction speed 8.8 X
Track quality 100.0 %
Test CRC E47C10EA
Copy CRC E47C10EA
Track not present in AccurateRip database
Copy OK

Track 10

Filename D:\#cdr\#wav+flac\David Byrne - American Utopia on Broadway (Original Cast Recording)\cd 1\10. David Byrne - Glass, Concrete & Stone (Live).wav

Peak level 99.4 %
Extraction speed 6.7 X
Track quality 99.9 %
Test CRC EF5C7DA7
Copy CRC EF5C7DA7
Track not present in AccurateRip database
Copy OK


None of the tracks are present in the AccurateRip database

No errors occurred

End of status report

–– CUETools DB Plugin V2.1.6

[CTDB TOCID: BLbwB9uLrzlT_28rcvDB7X1hjdk-] found
Submit result: BLbwB9uLrzlT_28rcvDB7X1hjdk- has been confirmed
Track | CTDB Status
1 | (6/6) Accurately ripped
2 | (6/6) Accurately ripped
3 | (6/6) Accurately ripped
4 | (6/6) Accurately ripped
5 | (6/6) Accurately ripped
6 | (6/6) Accurately ripped
7 | (6/6) Accurately ripped
8 | (6/6) Accurately ripped
9 | (6/6) Accurately ripped
10 | (6/6) Accurately ripped


==== Log checksum E8EAC03CD4D9A81410CD55341A4B7938D03484B468904D5A88870EFE8CA6B133 ====

––––––––––––––––––––––––––––––

Exact Audio Copy V1.3 from 2. September 2016

EAC extraction logfile from 9. December 2019, 20:26

David Byrne / American Utopia on Broadway (Original Cast Recording)

Used drive : PLEXTOR PX-891SAF Adapter: 1 ID: 0

Read mode : Secure
Utilize accurate stream : Yes
Defeat audio cache : Yes
Make use of C2 pointers : No

Read offset correction : 6
Overread into Lead-In and Lead-Out : No
Fill up missing offset samples with silence : Yes
Delete leading and trailing silent blocks : No
Null samples used in CRC calculations : Yes
Used interface : Native Win32 interface for Win NT & 2000
Gap handling : Appended to previous track

Used output format : User Defined Encoder
Selected bitrate : 1024 kBit/s
Quality : High
Add ID3 tag : No
Command line compressor : C:\Program Files (x86)\Exact Audio Copy\Flac\flac.exe
Additional command line options : -8 -V -T "ARTIST=%artist%" -T "TITLE=%title%" -T "ALBUM=%albumtitle%" -T "DATE=%year%" -T "TRACKNUMBER=%tracknr%" -T "GENRE=%genre%" -T "PERFORMER=%albuminterpret%" -T "COMPOSER=%composer%" %haslyrics%–tag-from-file=LYRICS="%lyricsfile%"%haslyrics% -T "ALBUMARTIST=%albumartist%" -T "DISCNUMBER=%cdnumber%" -T "TOTALDISCS=%totalcds%" -T "TOTALTRACKS=%numtracks%" -T "COMMENT=%comment%" %source% -o %dest%


TOC of the extracted CD

Track | Start | Length | Start sector | End sector
––––––––––––––––––––––––––––-
1 | 0:00.00 | 4:18.60 | 0 | 19409
2 | 4:18.60 | 4:26.53 | 19410 | 39412
3 | 8:45.38 | 4:33.39 | 39413 | 59926
4 | 13:19.02 | 4:56.32 | 59927 | 82158
5 | 18:15.34 | 3:08.21 | 82159 | 96279
6 | 21:23.55 | 4:48.53 | 96280 | 117932
7 | 26:12.33 | 3:15.41 | 117933 | 132598
8 | 29:27.74 | 3:46.14 | 132599 | 149562
9 | 33:14.13 | 5:33.69 | 149563 | 174606
10 | 38:48.07 | 3:11.66 | 174607 | 188997


Track 1

Filename D:\#cdr\#wav+flac\David Byrne - American Utopia on Broadway (Original Cast Recording)\cd 1\01. David Byrne - Here (Live).wav

Pre-gap length 0:00:02.00

Peak level 100.0 %
Extraction speed 5.2 X
Track quality 100.0 %
Test CRC 2D4F8704
Copy CRC 2D4F8704
Track not present in AccurateRip database
Copy OK

Track 2

Filename D:\#cdr\#wav+flac\David Byrne - American Utopia on Broadway (Original Cast Recording)\cd 1\02. David Byrne - I Know Sometimes a Man Is Wrong - Don't Worry About the Government (Live).wav

Peak level 100.0 %
Extraction speed 5.8 X
Track quality 100.0 %
Test CRC 612075D8
Copy CRC 612075D8
Track not present in AccurateRip database
Copy OK

Track 3

Filename D:\#cdr\#wav+flac\David Byrne - American Utopia on Broadway (Original Cast Recording)\cd 1\03. David Byrne - Lazy (Live).wav

Peak level 100.0 %
Extraction speed 5.4 X
Track quality 99.9 %
Test CRC FC24E84D
Copy CRC FC24E84D
Track not present in AccurateRip database
Copy OK

Track 4

Filename D:\#cdr\#wav+flac\David Byrne - American Utopia on Broadway (Original Cast Recording)\cd 1\04. David Byrne - This Must Be the Place (Naïve Melody) [Live].wav

Peak level 100.0 %
Extraction speed 7.2 X
Track quality 100.0 %
Test CRC D39DC3C7
Copy CRC D39DC3C7
Track not present in AccurateRip database
Copy OK

Track 5

Filename D:\#cdr\#wav+flac\David Byrne - American Utopia on Broadway (Original Cast Recording)\cd 1\05. David Byrne - I Zimbra (Live).wav

Peak level 100.0 %
Extraction speed 7.2 X
Track quality 100.0 %
Test CRC D3937B0C
Copy CRC D3937B0C
Track not present in AccurateRip database
Copy OK

Track 6

Filename D:\#cdr\#wav+flac\David Byrne - American Utopia on Broadway (Original Cast Recording)\cd 1\06. David Byrne - Slippery People (Live).wav

Peak level 99.9 %
Extraction speed 7.7 X
Track quality 100.0 %
Test CRC D8D6D95D
Copy CRC D8D6D95D
Track not present in AccurateRip database
Copy OK

Track 7

Filename D:\#cdr\#wav+flac\David Byrne - American Utopia on Broadway (Original Cast Recording)\cd 1\07. David Byrne - I Should Watch TV (Live).wav

Peak level 100.0 %
Extraction speed 6.1 X
Track quality 99.9 %
Test CRC 0B628CC0
Copy CRC 0B628CC0
Track not present in AccurateRip database
Copy OK

Track 8

Filename D:\#cdr\#wav+flac\David Byrne - American Utopia on Broadway (Original Cast Recording)\cd 1\08. David Byrne - Everybody's Coming to My House (Live).wav

Peak level 100.0 %
Extraction speed 8.1 X
Track quality 100.0 %
Test CRC EDEA106D
Copy CRC EDEA106D
Track not present in AccurateRip database
Copy OK

Track 9

Filename D:\#cdr\#wav+flac\David Byrne - American Utopia on Broadway (Original Cast Recording)\cd 1\09. David Byrne - Once in a Lifetime (Live).wav

Peak level 100.0 %
Extraction speed 8.8 X
Track quality 100.0 %
Test CRC E47C10EA
Copy CRC E47C10EA
Track not present in AccurateRip database
Copy OK

Track 10

Filename D:\#cdr\#wav+flac\David Byrne - American Utopia on Broadway (Original Cast Recording)\cd 1\10. David Byrne - Glass, Concrete & Stone (Live).wav

Peak level 99.4 %
Extraction speed 6.7 X
Track quality 99.9 %
Test CRC EF5C7DA7
Copy CRC EF5C7DA7
Track not present in AccurateRip database
Copy OK


None of the tracks are present in the AccurateRip database

No errors occurred

End of status report

–– CUETools DB Plugin V2.1.6

[CTDB TOCID: BLbwB9uLrzlT_28rcvDB7X1hjdk-] found
Submit result: BLbwB9uLrzlT_28rcvDB7X1hjdk- has been confirmed
Track | CTDB Status
1 | (6/6) Accurately ripped
2 | (6/6) Accurately ripped
3 | (6/6) Accurately ripped
4 | (6/6) Accurately ripped
5 | (6/6) Accurately ripped
6 | (6/6) Accurately ripped
7 | (6/6) Accurately ripped
8 | (6/6) Accurately ripped
9 | (6/6) Accurately ripped
10 | (6/6) Accurately ripped


==== Log checksum E8EAC03CD4D9A81410CD55341A4B7938D03484B468904D5A88870EFE8CA6B133 ====
Exact Audio Copy V1.3 from 2. September 2016

EAC extraction logfile from 9. December 2019, 19:12

David Byrne / American Utopia on Broadway (Original Cast Recording)

Used drive : PLEXTOR PX-891SAF Adapter: 1 ID: 0

Read mode : Secure
Utilize accurate stream : Yes
Defeat audio cache : Yes
Make use of C2 pointers : No

Read offset correction : 6
Overread into Lead-In and Lead-Out : No
Fill up missing offset samples with silence : Yes
Delete leading and trailing silent blocks : No
Null samples used in CRC calculations : Yes
Used interface : Native Win32 interface for Win NT & 2000
Gap handling : Appended to previous track

Used output format : User Defined Encoder
Selected bitrate : 1024 kBit/s
Quality : High
Add ID3 tag : No
Command line compressor : C:\Program Files (x86)\Exact Audio Copy\Flac\flac.exe
Additional command line options : -8 -V -T "ARTIST=%artist%" -T "TITLE=%title%" -T "ALBUM=%albumtitle%" -T "DATE=%year%" -T "TRACKNUMBER=%tracknr%" -T "GENRE=%genre%" -T "PERFORMER=%albuminterpret%" -T "COMPOSER=%composer%" %haslyrics%–tag-from-file=LYRICS="%lyricsfile%"%haslyrics% -T "ALBUMARTIST=%albumartist%" -T "DISCNUMBER=%cdnumber%" -T "TOTALDISCS=%totalcds%" -T "TOTALTRACKS=%numtracks%" -T "COMMENT=%comment%" %source% -o %dest%


TOC of the extracted CD

Track | Start | Length | Start sector | End sector
––––––––––––––––––––––––––––-
1 | 0:00.00 | 3:39.12 | 0 | 16436
2 | 3:39.12 | 5:00.54 | 16437 | 38990
3 | 8:39.66 | 3:58.68 | 38991 | 56908
4 | 12:38.59 | 3:30.65 | 56909 | 72723
5 | 16:09.49 | 4:54.49 | 72724 | 94822
6 | 21:04.23 | 5:11.32 | 94823 | 118179
7 | 26:15.55 | 4:16.10 | 118180 | 137389
8 | 30:31.65 | 4:15.45 | 137390 | 156559
9 | 34:47.35 | 3:36.26 | 156560 | 172785
10 | 38:23.61 | 4:30.39 | 172786 | 193074
11 | 42:54.25 | 5:46.12 | 193075 | 219036


Track 1

Filename D:\#cdr\#wav+flac\David Byrne - American Utopia on Broadway (Original Cast Recording)\01. David Byrne - Toe Jam (Live).wav

Pre-gap length 0:00:02.00

Peak level 100.0 %
Extraction speed 5.0 X
Track quality 100.0 %
Test CRC 4BB4F690
Copy CRC 4BB4F690
Track not present in AccurateRip database
Copy OK

Track 2

Filename D:\#cdr\#wav+flac\David Byrne - American Utopia on Broadway (Original Cast Recording)\02. David Byrne - Born Under Punches (The Heat Goes On) [Live].wav

Peak level 100.0 %
Extraction speed 5.8 X
Track quality 100.0 %
Test CRC 9D8454D5
Copy CRC 9D8454D5
Track not present in AccurateRip database
Copy OK

Track 3

Filename D:\#cdr\#wav+flac\David Byrne - American Utopia on Broadway (Original Cast Recording)\03. David Byrne - I Dance like This (Live).wav

Peak level 100.0 %
Extraction speed 6.2 X
Track quality 100.0 %
Test CRC 94EFBCAA
Copy CRC 94EFBCAA
Track not present in AccurateRip database
Copy OK

Track 4

Filename D:\#cdr\#wav+flac\David Byrne - American Utopia on Broadway (Original Cast Recording)\04. David Byrne - Bullet (Live).wav

Peak level 99.4 %
Extraction speed 6.5 X
Track quality 100.0 %
Test CRC 943CDF13
Copy CRC 943CDF13
Track not present in AccurateRip database
Copy OK

Track 5

Filename D:\#cdr\#wav+flac\David Byrne - American Utopia on Broadway (Original Cast Recording)\05. David Byrne - Every Day Is a Miracle (Live).wav

Peak level 99.6 %
Extraction speed 7.2 X
Track quality 100.0 %
Test CRC C90E1389
Copy CRC C90E1389
Track not present in AccurateRip database
Copy OK

Track 6

Filename D:\#cdr\#wav+flac\David Byrne - American Utopia on Broadway (Original Cast Recording)\06. David Byrne - Blind (Live).wav

Peak level 100.0 %
Extraction speed 6.7 X
Track quality 99.9 %
Test CRC 497B4F66
Copy CRC 497B4F66
Track not present in AccurateRip database
Copy OK

Track 7

Filename D:\#cdr\#wav+flac\David Byrne - American Utopia on Broadway (Original Cast Recording)\07. David Byrne - Burning Down the House (Live).wav

Peak level 100.0 %
Extraction speed 8.0 X
Track quality 100.0 %
Test CRC 9DD9E766
Copy CRC 9DD9E766
Track not present in AccurateRip database
Copy OK

Track 8

Filename D:\#cdr\#wav+flac\David Byrne - American Utopia on Broadway (Original Cast Recording)\08. David Byrne - Hell You Talmbout (Live).wav

Peak level 100.0 %
Extraction speed 6.9 X
Track quality 99.9 %
Test CRC 026509F9
Copy CRC 026509F9
Track not present in AccurateRip database
Copy OK

Track 9

Filename D:\#cdr\#wav+flac\David Byrne - American Utopia on Broadway (Original Cast Recording)\09. David Byrne - One Fine Day (Live).wav

Peak level 99.6 %
Extraction speed 8.5 X
Track quality 100.0 %
Test CRC F30A6AA3
Copy CRC F30A6AA3
Track not present in AccurateRip database
Copy OK

Track 10

Filename D:\#cdr\#wav+flac\David Byrne - American Utopia on Broadway (Original Cast Recording)\10. David Byrne - Road to Nowhere (Live).wav

Peak level 100.0 %
Extraction speed 9.0 X
Track quality 100.0 %
Test CRC D71044B3
Copy CRC D71044B3
Track not present in AccurateRip database
Copy OK

Track 11

Filename D:\#cdr\#wav+flac\David Byrne - American Utopia on Broadway (Original Cast Recording)\11. David Byrne - The Great Curve (Live).wav

Peak level 100.0 %
Extraction speed 9.6 X
Track quality 100.0 %
Test CRC 99F162CF
Copy CRC 99F162CF
Track not present in AccurateRip database
Copy OK


None of the tracks are present in the AccurateRip database

No errors occurred

End of status report

–– CUETools DB Plugin V2.1.6

[CTDB TOCID: zppO31YOLA8zjpjYFoGiqOrOhuY-] found
Submit result: zppO31YOLA8zjpjYFoGiqOrOhuY- has been confirmed
Track | CTDB Status
1 | (5/5) Accurately ripped
2 | (5/5) Accurately ripped
3 | (5/5) Accurately ripped
4 | (5/5) Accurately ripped
5 | (5/5) Accurately ripped
6 | (5/5) Accurately ripped
7 | (5/5) Accurately ripped
8 | (5/5) Accurately ripped
9 | (5/5) Accurately ripped
10 | (5/5) Accurately ripped
11 | (5/5) Accurately ripped


==== Log checksum F4B54A412467ABBC1AF2EDD7C4546587EF089C3DC6926147B27821004F9FAE3F ====

––––––––––––––––––––––––––––––

Exact Audio Copy V1.3 from 2. September 2016

EAC extraction logfile from 9. December 2019, 19:12

David Byrne / American Utopia on Broadway (Original Cast Recording)

Used drive : PLEXTOR PX-891SAF Adapter: 1 ID: 0

Read mode : Secure
Utilize accurate stream : Yes
Defeat audio cache : Yes
Make use of C2 pointers : No

Read offset correction : 6
Overread into Lead-In and Lead-Out : No
Fill up missing offset samples with silence : Yes
Delete leading and trailing silent blocks : No
Null samples used in CRC calculations : Yes
Used interface : Native Win32 interface for Win NT & 2000
Gap handling : Appended to previous track

Used output format : User Defined Encoder
Selected bitrate : 1024 kBit/s
Quality : High
Add ID3 tag : No
Command line compressor : C:\Program Files (x86)\Exact Audio Copy\Flac\flac.exe
Additional command line options : -8 -V -T "ARTIST=%artist%" -T "TITLE=%title%" -T "ALBUM=%albumtitle%" -T "DATE=%year%" -T "TRACKNUMBER=%tracknr%" -T "GENRE=%genre%" -T "PERFORMER=%albuminterpret%" -T "COMPOSER=%composer%" %haslyrics%–tag-from-file=LYRICS="%lyricsfile%"%haslyrics% -T "ALBUMARTIST=%albumartist%" -T "DISCNUMBER=%cdnumber%" -T "TOTALDISCS=%totalcds%" -T "TOTALTRACKS=%numtracks%" -T "COMMENT=%comment%" %source% -o %dest%


TOC of the extracted CD

Track | Start | Length | Start sector | End sector
––––––––––––––––––––––––––––-
1 | 0:00.00 | 3:39.12 | 0 | 16436
2 | 3:39.12 | 5:00.54 | 16437 | 38990
3 | 8:39.66 | 3:58.68 | 38991 | 56908
4 | 12:38.59 | 3:30.65 | 56909 | 72723
5 | 16:09.49 | 4:54.49 | 72724 | 94822
6 | 21:04.23 | 5:11.32 | 94823 | 118179
7 | 26:15.55 | 4:16.10 | 118180 | 137389
8 | 30:31.65 | 4:15.45 | 137390 | 156559
9 | 34:47.35 | 3:36.26 | 156560 | 172785
10 | 38:23.61 | 4:30.39 | 172786 | 193074
11 | 42:54.25 | 5:46.12 | 193075 | 219036


Track 1

Filename D:\#cdr\#wav+flac\David Byrne - American Utopia on Broadway (Original Cast Recording)\01. David Byrne - Toe Jam (Live).wav

Pre-gap length 0:00:02.00

Peak level 100.0 %
Extraction speed 5.0 X
Track quality 100.0 %
Test CRC 4BB4F690
Copy CRC 4BB4F690
Track not present in AccurateRip database
Copy OK

Track 2

Filename D:\#cdr\#wav+flac\David Byrne - American Utopia on Broadway (Original Cast Recording)\02. David Byrne - Born Under Punches (The Heat Goes On) [Live].wav

Peak level 100.0 %
Extraction speed 5.8 X
Track quality 100.0 %
Test CRC 9D8454D5
Copy CRC 9D8454D5
Track not present in AccurateRip database
Copy OK

Track 3

Filename D:\#cdr\#wav+flac\David Byrne - American Utopia on Broadway (Original Cast Recording)\03. David Byrne - I Dance like This (Live).wav

Peak level 100.0 %
Extraction speed 6.2 X
Track quality 100.0 %
Test CRC 94EFBCAA
Copy CRC 94EFBCAA
Track not present in AccurateRip database
Copy OK

Track 4

Filename D:\#cdr\#wav+flac\David Byrne - American Utopia on Broadway (Original Cast Recording)\04. David Byrne - Bullet (Live).wav

Peak level 99.4 %
Extraction speed 6.5 X
Track quality 100.0 %
Test CRC 943CDF13
Copy CRC 943CDF13
Track not present in AccurateRip database
Copy OK

Track 5

Filename D:\#cdr\#wav+flac\David Byrne - American Utopia on Broadway (Original Cast Recording)\05. David Byrne - Every Day Is a Miracle (Live).wav

Peak level 99.6 %
Extraction speed 7.2 X
Track quality 100.0 %
Test CRC C90E1389
Copy CRC C90E1389
Track not present in AccurateRip database
Copy OK

Track 6

Filename D:\#cdr\#wav+flac\David Byrne - American Utopia on Broadway (Original Cast Recording)\06. David Byrne - Blind (Live).wav

Peak level 100.0 %
Extraction speed 6.7 X
Track quality 99.9 %
Test CRC 497B4F66
Copy CRC 497B4F66
Track not present in AccurateRip database
Copy OK

Track 7

Filename D:\#cdr\#wav+flac\David Byrne - American Utopia on Broadway (Original Cast Recording)\07. David Byrne - Burning Down the House (Live).wav

Peak level 100.0 %
Extraction speed 8.0 X
Track quality 100.0 %
Test CRC 9DD9E766
Copy CRC 9DD9E766
Track not present in AccurateRip database
Copy OK

Track 8

Filename D:\#cdr\#wav+flac\David Byrne - American Utopia on Broadway (Original Cast Recording)\08. David Byrne - Hell You Talmbout (Live).wav

Peak level 100.0 %
Extraction speed 6.9 X
Track quality 99.9 %
Test CRC 026509F9
Copy CRC 026509F9
Track not present in AccurateRip database
Copy OK

Track 9

Filename D:\#cdr\#wav+flac\David Byrne - American Utopia on Broadway (Original Cast Recording)\09. David Byrne - One Fine Day (Live).wav

Peak level 99.6 %
Extraction speed 8.5 X
Track quality 100.0 %
Test CRC F30A6AA3
Copy CRC F30A6AA3
Track not present in AccurateRip database
Copy OK

Track 10

Filename D:\#cdr\#wav+flac\David Byrne - American Utopia on Broadway (Original Cast Recording)\10. David Byrne - Road to Nowhere (Live).wav

Peak level 100.0 %
Extraction speed 9.0 X
Track quality 100.0 %
Test CRC D71044B3
Copy CRC D71044B3
Track not present in AccurateRip database
Copy OK

Track 11

Filename D:\#cdr\#wav+flac\David Byrne - American Utopia on Broadway (Original Cast Recording)\11. David Byrne - The Great Curve (Live).wav

Peak level 100.0 %
Extraction speed 9.6 X
Track quality 100.0 %
Test CRC 99F162CF
Copy CRC 99F162CF
Track not present in AccurateRip database
Copy OK


None of the tracks are present in the AccurateRip database

No errors occurred

End of status report

–– CUETools DB Plugin V2.1.6

[CTDB TOCID: zppO31YOLA8zjpjYFoGiqOrOhuY-] found
Submit result: zppO31YOLA8zjpjYFoGiqOrOhuY- has been confirmed
Track | CTDB Status
1 | (5/5) Accurately ripped
2 | (5/5) Accurately ripped
3 | (5/5) Accurately ripped
4 | (5/5) Accurately ripped
5 | (5/5) Accurately ripped
6 | (5/5) Accurately ripped
7 | (5/5) Accurately ripped
8 | (5/5) Accurately ripped
9 | (5/5) Accurately ripped
10 | (5/5) Accurately ripped
11 | (5/5) Accurately ripped


==== Log checksum F4B54A412467ABBC1AF2EDD7C4546587EF089C3DC6926147B27821004F9FAE3F ====

Thanks to the Original ripper !