Subcategories

Deep Purple - Classic Songs: Live In Concert (2017) {earMusic 0212222EMU}[/b]

Posted By: ruskaval
Deep Purple - Classic Songs: Live In Concert (2017) {earMusic 0212222EMU}[/b]

Deep Purple - Classic Songs: Live In Concert (2017) {earMusic 0212222EMU}
EAC rip (secure mode) | FLAC (tracks)+CUE+LOG -> 533 Mb | MP3 @320 -> 169 Mb
Full Artwork @ 300 dpi (png) -> 93 Mb | 5% repair rar
© 2017 earMusic / Edel | 0212222EMU
Rock / Hard Rock / Classic Rock

75 minutes of Deep Purple live; includes 'Smoke on the Water' 'Black Night' & 'Hush'. Recorded at Wacken Festival 2013, Tokyo 2014 & Geavle, Sweden in 2013 (11 tracks). Deep Purple are one of the most influential British rock bands of all time. With 120 million albums sold worldwide, they are also one of the most loved British bands ever. Inducted into the Rock And Roll Hall of Fame last year, they have inspired and shaped the taste of generations of hard rock musicians and fans with milestone albums like "In Rock" or "Machine Head" which are essential chapters in rock music history. "Classic Songs Live in Concerts" has all of Deep Purple's biggest hits ("Smoke On The Water", "Space Truckin'", "Highway Star" and many more) recorded live in Tokyo, Wacken and Sweden in 2013 and 2014.
Deep Purple - Classic Songs: Live In Concert (2017) {earMusic 0212222EMU}[/b]


tracklist:
1. Highway Star (Live at Wacken 2013)
2. Into the Fire (Live at Wacken 2013)
3. Hard Lovein' Man (Live in Tokyo 2014)
4. Strange Kind of Woman (Live in Tokyo 2014)
5. Lazy (Live in Tokyo 2014)
6. No One Came (Live in Gaevle, Sweden, 2013)
7. Perfect Strangers (Live in Tokyo 2014)
8. Space Truckin' (Live in Tokyo 2014)
9. Smoke on the Water (Live in Tokyo 2014)
10. Green Onions/Hush (Live at Wacken 2013)
11. Black Night (Live in Tokyo 2014)

Exact Audio Copy V1.3 from 2. September 2016

EAC extraction logfile from 30. October 2017, 5:26

Deep Purple / Classic Songs Live In Concert

Used drive : HL-DT-STBDDVDRW UH12NS30 Adapter: 1 ID: 0

Read mode : Secure
Utilize accurate stream : Yes
Defeat audio cache : Yes
Make use of C2 pointers : No

Read offset correction : 6
Overread into Lead-In and Lead-Out : No
Fill up missing offset samples with silence : Yes
Delete leading and trailing silent blocks : No
Null samples used in CRC calculations : Yes
Used interface : Native Win32 interface for Win NT & 2000
Gap handling : Appended to previous track

Used output format : User Defined Encoder
Selected bitrate : 128 kBit/s
Quality : High
Add ID3 tag : No
Command line compressor : C:\Program Files (x86)\Exact Audio Copy\Flac\flac.exe
Additional command line options : -8 -V -T "ARTIST=%artist%" -T "TITLE=%title%" -T "ALBUM=%albumtitle%" -T "DATE=%year%" -T "TRACKNUMBER=%tracknr%" -T "TOTALTRACKS=%numtracks%" -T "GENRE=%genre%" -T "ALBUMARTIST=%albumartist%" -T "ALBUM ARTIST=%albumartist%" -T "COMMENT=EAC Secure Mode, Test & Copy, AccurateRip, FLAC -8" %source%


TOC of the extracted CD

Track | Start | Length | Start sector | End sector
––––––––––––––––––––––––––––-
1 | 0:00.00 | 6:48.55 | 0 | 30654
2 | 6:48.55 | 3:24.72 | 30655 | 46026
3 | 10:13.52 | 6:47.68 | 46027 | 76619
4 | 17:01.45 | 6:12.40 | 76620 | 104559
5 | 23:14.10 | 8:35.19 | 104560 | 143203
6 | 31:49.29 | 5:15.25 | 143204 | 166853
7 | 37:04.54 | 6:03.70 | 166854 | 194148
8 | 43:08.49 | 6:00.14 | 194149 | 221162
9 | 49:08.63 | 6:59.60 | 221163 | 252647
10 | 56:08.48 | 7:20.34 | 252648 | 285681
11 | 63:29.07 | 7:41.71 | 285682 | 320327


Track 1

Filename E:\EAC Rips\Deep Purple - Classic Songs Live In Concert (2017) [FLAC] {0212222EMU}\01 - Highway Star.wav

Pre-gap length 0:00:02.00

Peak level 97.7 %
Extraction speed 1.4 X
Track quality 100.0 %
Test CRC 2821A0FA
Copy CRC 2821A0FA
Track not present in AccurateRip database
Copy OK

Track 2

Filename E:\EAC Rips\Deep Purple - Classic Songs Live In Concert (2017) [FLAC] {0212222EMU}\02 - Into The Fire.wav

Peak level 97.7 %
Extraction speed 1.3 X
Track quality 100.0 %
Test CRC 915334A6
Copy CRC 915334A6
Track not present in AccurateRip database
Copy OK

Track 3

Filename E:\EAC Rips\Deep Purple - Classic Songs Live In Concert (2017) [FLAC] {0212222EMU}\03 - Hard Lovin' Man.wav

Pre-gap length 0:00:00.01

Peak level 100.0 %
Extraction speed 1.6 X
Track quality 100.0 %
Test CRC FBB9433C
Copy CRC FBB9433C
Track not present in AccurateRip database
Copy OK

Track 4

Filename E:\EAC Rips\Deep Purple - Classic Songs Live In Concert (2017) [FLAC] {0212222EMU}\04 - Strange Kind Of Woman.wav

Pre-gap length 0:00:00.01

Peak level 97.7 %
Extraction speed 1.7 X
Track quality 100.0 %
Test CRC 0BC0A426
Copy CRC 0BC0A426
Track not present in AccurateRip database
Copy OK

Track 5

Filename E:\EAC Rips\Deep Purple - Classic Songs Live In Concert (2017) [FLAC] {0212222EMU}\05 - Lazy.wav

Pre-gap length 0:00:00.01

Peak level 97.7 %
Extraction speed 1.8 X
Track quality 99.9 %
Test CRC 458BA4A5
Copy CRC 458BA4A5
Track not present in AccurateRip database
Copy OK

Track 6

Filename E:\EAC Rips\Deep Purple - Classic Songs Live In Concert (2017) [FLAC] {0212222EMU}\06 - No One Came.wav

Pre-gap length 0:00:00.01

Peak level 100.0 %
Extraction speed 2.0 X
Track quality 100.0 %
Test CRC 0DD9ABFD
Copy CRC 0DD9ABFD
Track not present in AccurateRip database
Copy OK

Track 7

Filename E:\EAC Rips\Deep Purple - Classic Songs Live In Concert (2017) [FLAC] {0212222EMU}\07 - Perfect Strangers.wav

Pre-gap length 0:00:00.01

Peak level 97.7 %
Extraction speed 2.1 X
Track quality 100.0 %
Test CRC 62F3A58A
Copy CRC 62F3A58A
Track not present in AccurateRip database
Copy OK

Track 8

Filename E:\EAC Rips\Deep Purple - Classic Songs Live In Concert (2017) [FLAC] {0212222EMU}\08 - Space Truckin'.wav

Pre-gap length 0:00:00.01

Peak level 97.7 %
Extraction speed 2.0 X
Track quality 99.9 %
Test CRC 8B8DD6C5
Copy CRC 8B8DD6C5
Track not present in AccurateRip database
Copy OK

Track 9

Filename E:\EAC Rips\Deep Purple - Classic Songs Live In Concert (2017) [FLAC] {0212222EMU}\09 - Smoke On The Water.wav

Pre-gap length 0:00:00.01

Peak level 97.7 %
Extraction speed 2.4 X
Track quality 100.0 %
Test CRC 83D572E6
Copy CRC 83D572E6
Track not present in AccurateRip database
Copy OK

Track 10

Filename E:\EAC Rips\Deep Purple - Classic Songs Live In Concert (2017) [FLAC] {0212222EMU}\10 - Green Onions - Hush.wav

Pre-gap length 0:00:00.01

Peak level 100.0 %
Extraction speed 2.5 X
Track quality 100.0 %
Test CRC B6B66876
Copy CRC B6B66876
Track not present in AccurateRip database
Copy OK

Track 11

Filename E:\EAC Rips\Deep Purple - Classic Songs Live In Concert (2017) [FLAC] {0212222EMU}\11 - Black Night.wav

Pre-gap length 0:00:00.01

Peak level 97.7 %
Extraction speed 2.6 X
Track quality 100.0 %
Test CRC D8B436EA
Copy CRC D8B436EA
Track not present in AccurateRip database
Copy OK


None of the tracks are present in the AccurateRip database

No errors occurred

End of status report

–– CUETools DB Plugin V2.1.6

[CTDB TOCID: ofSXi2gsEspNdf9MVyZg6BlTIYI-] disk not present in database
Submit result: ofSXi2gsEspNdf9MVyZg6BlTIYI- has been uploaded


==== Log checksum 22F7C6553A0D8420DDBBE229714E2F817E79D0859B2EA86D9FA6F7AC3989B8D9 ====


Deep Purple - Classic Songs: Live In Concert (2017) {earMusic 0212222EMU}[/b]

Deep Purple - Classic Songs: Live In Concert (2017) {earMusic 0212222EMU}[/b]



===