Subcategories

Denny Zeitlin - Carnival (1964) {2015 Japan Jazz Collection 1000 Columbia-RCA Series SICJ 82}

Posted By: ruskaval
Denny Zeitlin - Carnival (1964) {2015 Japan Jazz Collection 1000 Columbia-RCA Series SICJ 82}

Denny Zeitlin - Carnival (1964) {2015 Japan Jazz Collection 1000 Columbia-RCA Series SICJ 82}
EAC rip (secure mode) | FLAC (tracks)+CUE+LOG -> 248 Mb | MP3 @320 -> 115 Mb
Full Artwork @ 600 dpi (png) -> 234 Mb | 5% repair rar
© 1964, 2015 Columbia / Sony Music Japan | SICJ 82
Jazz / Hard Bop / Post Bop / Contemporary Jazz / Piano Trio

Reissue with the latest 2015 DSD remastering. Comes with liner notes. The Zeitlin trio…a stunning display of instrumental virtuosity, emotional depth, and musicality…Zeitlin’s piano is impeccable…introspective, filled with joy, bitingly mocking, always intelligent and emotional. Bassist Charlie Haden and drummer Jerry Granelli join the pianist on the Carnival session. Zeitlin's "Carole's Garden" has been recorded several times by other musicians since its debut on Carnival. His tranquil "After the War" is so softly played that it would hush the noisiest nightclub crowd.
NEW YORK TIMES, John S. Wilson: “…among the few contemporary jazz pianists who have the imagination, discipline, and technique to rise above the competent but routine level that most of them appear willing to settle for.”
Denny Zeitlin - Carnival (1964) {2015 Japan Jazz Collection 1000 Columbia-RCA Series SICJ 82}


Musicians

Denny Zeitlin - piano
Charlie Haden - bass
Jerry Granelli - drums

Track Listing

01 - Carole's Garden
02 - We'll Be Together Again
03 - Skippying
04 - Once Upon A Summertime
05 - Carnival
06 - The Boy Next Door
07 - Minority
08 - After The War
09 - All The Things You Are
10 - I Got Rhythm (bonus track)

Exact Audio Copy V1.1 from 23. June 2015

EAC extraction logfile from 18. February 2018, 17:53

Denny Zeitlin / Carnival

Used drive : TSSTcorpCDDVDW SE-208DB Adapter: 1 ID: 0

Read mode : Secure
Utilize accurate stream : Yes
Defeat audio cache : Yes
Make use of C2 pointers : No

Read offset correction : 6
Overread into Lead-In and Lead-Out : No
Fill up missing offset samples with silence : Yes
Delete leading and trailing silent blocks : No
Null samples used in CRC calculations : Yes
Used interface : Native Win32 interface for Win NT & 2000
Gap handling : Appended to previous track

Used output format : User Defined Encoder
Selected bitrate : 1024 kBit/s
Quality : High
Add ID3 tag : No
Command line compressor : C:\Program Files (x86)\Exact Audio Copy_v1.3\Flac\flac.exe
Additional command line options : -8 -V -T "ARTIST=%artist%" -T "TITLE=%title%" -T "ALBUM=%albumtitle%" -T "DATE=%year%" -T "TRACKNUMBER=%tracknr%" -T "TOTALTRACKS=%numtracks%" -T "GENRE=%genre%" -T "ALBUMARTIST=%albumartist%" -T "ALBUM ARTIST=%albumartist%" -T "COMMENT=EAC Secure Mode, Test & Copy, AccurateRip, FLAC -8" %source%


TOC of the extracted CD

Track | Start | Length | Start sector | End sector
––––––––––––––––––––––––––––-
1 | 0:00.00 | 3:05.20 | 0 | 13894
2 | 3:05.20 | 6:06.38 | 13895 | 41382
3 | 9:11.58 | 3:42.25 | 41383 | 58057
4 | 12:54.08 | 3:14.72 | 58058 | 72679
5 | 16:09.05 | 8:28.19 | 72680 | 110798
6 | 24:37.24 | 3:27.32 | 110799 | 126355
7 | 28:04.56 | 4:10.64 | 126356 | 145169
8 | 32:15.45 | 6:03.47 | 145170 | 172441
9 | 38:19.17 | 8:44.10 | 172442 | 211751
10 | 47:03.27 | 2:53.74 | 211752 | 224800


Track 1

Filename D:\_EAC\Denny Zeitlin - Carnival (1964) [FLAC] {Japan Edition SICJ-82}\01 - Carole's Garden.wav

Pre-gap length 0:00:02.00

Peak level 99.9 %
Extraction speed 0.8 X
Track quality 99.9 %
Test CRC C37D8775
Copy CRC C37D8775
Accurately ripped (confidence 2) [32EB854D] (AR v2)
Copy OK

Track 2

Filename D:\_EAC\Denny Zeitlin - Carnival (1964) [FLAC] {Japan Edition SICJ-82}\02 - We'll Be Together Again.wav

Pre-gap length 0:00:04.24

Peak level 87.5 %
Extraction speed 1.0 X
Track quality 99.9 %
Test CRC 6223C812
Copy CRC 6223C812
Accurately ripped (confidence 2) [91C003E9] (AR v2)
Copy OK

Track 3

Filename D:\_EAC\Denny Zeitlin - Carnival (1964) [FLAC] {Japan Edition SICJ-82}\03 - Skippying.wav

Pre-gap length 0:00:04.36

Peak level 99.9 %
Extraction speed 1.2 X
Track quality 100.0 %
Test CRC FF4B0A2B
Copy CRC FF4B0A2B
Accurately ripped (confidence 2) [0DFBA9B2] (AR v2)
Copy OK

Track 4

Filename D:\_EAC\Denny Zeitlin - Carnival (1964) [FLAC] {Japan Edition SICJ-82}\04 - Once Upon A Summertime.wav

Pre-gap length 0:00:04.19

Peak level 86.3 %
Extraction speed 1.2 X
Track quality 100.0 %
Test CRC 75B52E8F
Copy CRC 75B52E8F
Accurately ripped (confidence 2) [7BC981F0] (AR v2)
Copy OK

Track 5

Filename D:\_EAC\Denny Zeitlin - Carnival (1964) [FLAC] {Japan Edition SICJ-82}\05 - Carnival.wav

Pre-gap length 0:00:03.68

Peak level 99.9 %
Extraction speed 1.4 X
Track quality 99.9 %
Test CRC 03BDB19D
Copy CRC 03BDB19D
Accurately ripped (confidence 2) [310EAF5D] (AR v2)
Copy OK

Track 6

Filename D:\_EAC\Denny Zeitlin - Carnival (1964) [FLAC] {Japan Edition SICJ-82}\06 - The Boy Next Door.wav

Pre-gap length 0:00:04.08

Peak level 99.9 %
Extraction speed 1.4 X
Track quality 100.0 %
Test CRC 231AFECA
Copy CRC 231AFECA
Accurately ripped (confidence 2) [72F8CB05] (AR v2)
Copy OK

Track 7

Filename D:\_EAC\Denny Zeitlin - Carnival (1964) [FLAC] {Japan Edition SICJ-82}\07 - Minority.wav

Pre-gap length 0:00:04.71

Peak level 99.9 %
Extraction speed 1.5 X
Track quality 100.0 %
Test CRC E1695BAC
Copy CRC E1695BAC
Accurately ripped (confidence 2) [E57213D5] (AR v2)
Copy OK

Track 8

Filename D:\_EAC\Denny Zeitlin - Carnival (1964) [FLAC] {Japan Edition SICJ-82}\08 - After The War.wav

Pre-gap length 0:00:04.26

Peak level 99.9 %
Extraction speed 1.6 X
Track quality 100.0 %
Test CRC 5959F861
Copy CRC 5959F861
Accurately ripped (confidence 2) [8A4FA549] (AR v2)
Copy OK

Track 9

Filename D:\_EAC\Denny Zeitlin - Carnival (1964) [FLAC] {Japan Edition SICJ-82}\09 - All The Things You Are.wav

Pre-gap length 0:00:03.61

Peak level 99.9 %
Extraction speed 1.8 X
Track quality 100.0 %
Test CRC B3F5DEF3
Copy CRC B3F5DEF3
Accurately ripped (confidence 2) [2973CDA3] (AR v2)
Copy OK

Track 10

Filename D:\_EAC\Denny Zeitlin - Carnival (1964) [FLAC] {Japan Edition SICJ-82}\10 - I Got Rhythm (bonus track).wav

Pre-gap length 0:00:04.28

Peak level 99.9 %
Extraction speed 1.3 X
Track quality 99.9 %
Test CRC DF7554C8
Copy CRC DF7554C8
Accurately ripped (confidence 2) [7A5029EA] (AR v2)
Copy OK


All tracks accurately ripped

No errors occurred

End of status report

–– CUETools DB Plugin V2.1.6

[CTDB TOCID: d031iS0MYoQ3p2npNAygi2CykIk-] found
Submit result: d031iS0MYoQ3p2npNAygi2CykIk- has been confirmed
Track | CTDB Status
1 | (9/9) Accurately ripped
2 | (9/9) Accurately ripped
3 | (9/9) Accurately ripped
4 | (9/9) Accurately ripped
5 | (9/9) Accurately ripped
6 | (9/9) Accurately ripped
7 | (9/9) Accurately ripped
8 | (9/9) Accurately ripped
9 | (9/9) Accurately ripped
10 | (9/9) Accurately ripped


==== Log checksum 17BD69F362C1EB22CADD85DB849AC81FA6BF64DF6D896B4AF1A383C47A2D6E69 ====


Denny Zeitlin - Carnival (1964) {2015 Japan Jazz Collection 1000 Columbia-RCA Series SICJ 82}

Denny Zeitlin - Carnival (1964) {2015 Japan Jazz Collection 1000 Columbia-RCA Series SICJ 82}


see more Denny Zeitlin…
see more Japan Jazz Collection 1000 Columbia-RCA Series…



===