Subcategories

Derek Bell - Carolan's Receipt (2005)

Posted By: niajo
Derek Bell - Carolan's Receipt (2005)

Derek Bell - Carolan's Receipt.
EAC (v0.99 prebeta 5) | Log+Cue+Flac | 182mb | Covers
Genre: Ethnic

Derek Bell, MBE (October 21, 1935 – October 17, 2002) was an Irish harpist, pianist, oboist, musicologist, and composer, best known for his accompaniment work on various instruments with The Chieftains.

Bell was born George Derek Fleetwood Bell in Belfast, Northern Ireland. Because he had been misdiagnosed at an early age as having a disease that would lead to blindness, his parents gave him a musical upbringing. Bell was something of a child prodigy, composing his first concerto at the age of 12. He graduated from the Royal College of Music in 1957. While studying there, he became friends with flautist James Galway. Between 1958 and 1990 he composed several classical works, including three piano sonatas, two symphonies, Three Images of Ireland in Druid Times (in 1993) for harp, strings and timpani, Nocturne on an Icelandic Melody (1997) for oboe d'amore and piano and Three Transcendental Concert Studies (2000) for oboe and piano. Bell had mastered and held an exquisite collection of several instruments, including various harps, harpsichord, piano, cymbalom, and all the members of the oboe family of instruments (musette, oboe, cor anglais, bass oboe) and the heckelphone

As manager of the Belfast Symphony Orchestra he was responsible for maintaining the instruments and keeping them in tune. Out of curiosity, Bell asked Sheila Larchet-Cuthbert to teach him how to play the harp. As time went on, he had many harp teachers. In 1965 he became an oboist and harpist with the BBC Northern Ireland Orchestra. He had been known to be able to skilfully play the pedal harp, neo-celtic harp, and wire-strung Irish harp. Bell served as a Professor of Harp at the Academy of Music in Belfast.

Bell had been briefly featured in the 1986 BBC documentary, The Celts, in which he discussed the role and evolution of the harp in Celtic Irish and Welsh society. Aside that, video clips of him only exist in the form of minor interviews and performances with the The Chieftains.

Tracklist
01. Sidh Beag Agus Sidh Mor 1:13
02. Carollan's Receipt or An Dochtuir Sean Stafford 02:34
03. Lady Athenry 01:50
04. Fanny Poer 03:21
05. Maire Dhall 02:52
06. Sir Festus A Burca 01:43
07. 'Ruisg, A Bhean Na Tabhairne' and Carolan's Ramble to Cashel 03:05
08. Mrs. Poer or Carolan's 'Concerto' 02:45
09. Sean O Conchubhair and a H-uisci Chroidhe Na Nanamann 02:19
10. Seoirse Brabston 02:08
11. Maible Ni Cheallaigh 03:26
12. Madam Maxwell / Carolan's Nightcap / Lady Gethin 02:35
13. Brighid Cruis 04:44
14. Sean O Raighilligh 01:48
15. Carolan's Farewell to Music 03:27

Exact Audio Copy V0.99 prebeta 5 from 4. May 2009



Archivo Log de extracciones desde 2. Junio 2010, 8:13



Derek Bell / Carolan's Receipt



Usar unidad : hp CDDVDW TS-H653R Adapter: 3 ID: 0



Modo de Lectura : Explosivo



Corrección de Desplazamiento de Lectura : 0

Sobreleer tanto en Lead-In como en Lead-Out : No

Rellenar las muestras faltantes con silencios : Sí

Eliminar silencios inicial y final : No

Se han usado muestras nulas en los cálculos CRC : No

Interfaz usada : Interfaz propio de Win32 para Windowns NT y 2000



Formato de Salida utilizado : Compresor definido por el usuario

Bitrate seleccionado : 768 kBit/s

Calidad : Alta

Añadir Etiqueta ID3 : No

Compresor de linea de comandos : C:\Archivos de programa\Exact Audio Copy\FLAC\FLAC.EXE

Opciones adicionales en línea de comandos : -6 -V -T "ARTIST=%a" -T "TITLE=%t" -T "ALBUM=%g" -T "DATE=%y" -T "TRACKNUMBER=%n" -T "GENRE=%m" -T "COMMENT=%e" %s -o %d





TOC del CD extraido



Pista | Inicio | Duración | Sector inicial | Sector final

––––––––––––––––––––––––––––––-

1 | 0:00.00 | 1:13.00 | 0 | 5474

2 | 1:13.00 | 2:34.18 | 5475 | 17042

3 | 3:47.18 | 1:50.60 | 17043 | 25352

4 | 5:38.03 | 3:21.00 | 25353 | 40427

5 | 8:59.03 | 2:52.52 | 40428 | 53379

6 | 11:51.55 | 1:43.00 | 53380 | 61104

7 | 13:34.55 | 3:05.68 | 61105 | 75047

8 | 16:40.48 | 2:45.25 | 75048 | 87447

9 | 19:25.73 | 2:19.60 | 87448 | 97932

10 | 21:45.58 | 2:08.22 | 97933 | 107554

11 | 23:54.05 | 3:26.15 | 107555 | 123019

12 | 27:20.20 | 2:35.18 | 123020 | 134662

13 | 29:55.38 | 4:44.05 | 134663 | 155967

14 | 34:39.43 | 1:48.67 | 155968 | 164134

15 | 36:28.35 | 3:27.65 | 164135 | 179724





Gama de estados y errores



Seleccionar gama



Nombre de Archivo D:\_llevar_\music\Derek Bell - Carolan's Receipt.wav



Nivel Pico 99.8 %

Test CRC 3DC01B53

Copiar CRC 3DC01B53

Copia OK



Sin Errores



Final del Informe


Links
Rs 01
Rs 02