Subcategories

Diana Ross & The Supremes - 20 Greatest Hits (1983)

Posted By: L@ter
Diana Ross & The Supremes - 20 Greatest Hits (1983)

Diana Ross & The Supremes - 20 Greatest Hits (1983)
EAC Rip | FLAC, IMG+CUE, LOG | 369 MB | 58,31 min | Scans
Label: Motown (1990) | Pop, R&B, Soul | Compilation | RAR 3% Rec.

The Supremes were the second most successful group of the 60s, after the Beatles. They first shot to superstardom when they enjoyed five No.1 singles in succession from 1964-65: "Where Did Our Love Go?", "Baby Love", "Come See About Me", "Stop! In The Name of Love" and "Back In My Arms Again". "Baby Love" topped the chart in Britain too. After a short break of comparatively disappointing singles (No.11 is a flop after five No.1's), they returned to the top in 1966 with "You Can't Hurry Love", "You Keep Me Hangin' On", "Love Is Here And Now You're Gone" and "The Happening". The group's… Amazon.com
Personel

- Diana Ross: lead vocals
- Mary Wilson and Florence Ballard: background vocals


Diana Ross & The Supremes

01. When The Lovelight Starts Shining Through His Eyes
02. Where Did Our Love Go
03. Baby Love
04. Come See About Me
05. My World Is Empty Without You
06. Stop! In The Name Of Love
07. Back In My Arms Again
08. I Hear A Symphony
09. You Can't Hurry Love
10. Love Is Like An Itching In My Heart
11. You Keep Me Hangin' On
12. Love Is Here And Now You're Gone
13. Reflections
14. Love Child
15. I'll Try Something New
16. I'm Gonna Make You Love Me
17. Someday We'll Be Together

The Supremes

18. Up The Ladder To The Roof
19. Stoned Love
20. Nathan Jones


Exact Audio Copy V0.99 prebeta 5 from 4. May 2009

EAC extraction logfile from 6. May 2010, 11:18

Diana Ross & The Supremes / 20 Greatest Hits

Used drive : HL-DT-STDVD-RAM GH22NP20 Adapter: 0 ID: 0

Read mode : Secure
Utilize accurate stream : Yes
Defeat audio cache : Yes
Make use of C2 pointers : No

Read offset correction : 102
Overread into Lead-In and Lead-Out : No
Fill up missing offset samples with silence : Yes
Delete leading and trailing silent blocks : No
Null samples used in CRC calculations : Yes
Used interface : Native Win32 interface for Win NT & 2000

Used output format : User Defined Encoder
Selected bitrate : 768 kBit/s
Quality : High
Add ID3 tag : No
Command line compressor : C:\Program Files\Exact Audio Copy\FLAC\FLAC.EXE
Additional command line options : -6 -V -T "ARTIST=%a" -T "TITLE=%t" -T "ALBUM=%g" -T "DATE=%y" -T "TRACKNUMBER=%n" -T "GENRE=%m" -T "COMMENT=%e" %s -o %d


TOC of the extracted CD

Track | Start | Length | Start sector | End sector
––––––––––––––––––––––––––––-
1 | 0:00.32 | 3:04.50 | 32 | 13881
2 | 3:05.07 | 2:33.30 | 13882 | 25386
3 | 5:38.37 | 2:37.58 | 25387 | 37219
4 | 8:16.20 | 2:43.62 | 37220 | 49506
5 | 11:00.07 | 2:35.13 | 49507 | 61144
6 | 13:35.20 | 2:53.37 | 61145 | 74156
7 | 16:28.57 | 2:53.00 | 74157 | 87131
8 | 19:21.57 | 2:44.50 | 87132 | 99481
9 | 22:06.32 | 2:47.38 | 99482 | 112044
10 | 24:53.70 | 2:53.62 | 112045 | 125081
11 | 27:47.57 | 2:43.00 | 125082 | 137306
12 | 30:30.57 | 2:47.63 | 137307 | 149894
13 | 33:18.45 | 2:51.37 | 149895 | 162756
14 | 36:10.07 | 2:57.50 | 162757 | 176081
15 | 39:07.57 | 2:21.50 | 176082 | 186706
16 | 41:29.32 | 3:08.38 | 186707 | 200844
17 | 44:37.70 | 3:30.37 | 200845 | 216631
18 | 48:08.32 | 3:13.00 | 216632 | 231106
19 | 51:21.32 | 4:09.13 | 231107 | 249794
20 | 55:30.45 | 3:01.25 | 249795 | 263394


Range status and errors

Selected range

Filename C:\Diana Ross & The Supremes - 20 Greatest Hits.wav

Peak level 93.4 %
Range quality 99.9 %
Copy CRC F956FB7E
Copy OK

No errors occurred


AccurateRip summary

Track 1 accurately ripped (confidence 14) [BFB303B6]
Track 2 accurately ripped (confidence 14) [C47C5739]
Track 3 accurately ripped (confidence 14) [3880D675]
Track 4 accurately ripped (confidence 14) [515C30F1]
Track 5 accurately ripped (confidence 14) [4619CA4F]
Track 6 accurately ripped (confidence 14) [FEE83661]
Track 7 accurately ripped (confidence 14) [E866F89F]
Track 8 accurately ripped (confidence 14) [AABEA8D8]
Track 9 accurately ripped (confidence 14) [390823CF]
Track 10 accurately ripped (confidence 14) [2E5060FA]
Track 11 accurately ripped (confidence 14) [A9E0EFD2]
Track 12 accurately ripped (confidence 14) [FB73A202]
Track 13 accurately ripped (confidence 14) [A8E5CD72]
Track 14 accurately ripped (confidence 14) [FAC8F32C]
Track 15 accurately ripped (confidence 14) [9CB71885]
Track 16 accurately ripped (confidence 14) [98BBBB0D]
Track 17 accurately ripped (confidence 14) [4DE937D2]
Track 18 accurately ripped (confidence 14) [90F1DBC1]
Track 19 accurately ripped (confidence 14) [6254F06D]
Track 20 accurately ripped (confidence 13) [D8D5073B]

All tracks accurately ripped

End of status report


REM GENRE "Pop / R&B / Soul"
REM DATE 1983
REM DISCID 230DB714
REM COMMENT "ExactAudioCopy v0.99pb5"
PERFORMER "Diana Ross & The Supremes"
TITLE "20 Greatest Hits"
FILE "Diana Ross & The Supremes - 20 Greatest Hits.flac" WAVE
TRACK 01 AUDIO
TITLE "When The Lovelight Starts Shining Through His Eyes"
PERFORMER "Diana Ross & The Supremes"
INDEX 00 00:00:00
INDEX 01 00:00:32
TRACK 02 AUDIO
TITLE "Where Did Our Love Go"
PERFORMER "Diana Ross & The Supremes"
INDEX 00 03:03:70
INDEX 01 03:05:07
TRACK 03 AUDIO
TITLE "Baby Love"
PERFORMER "Diana Ross & The Supremes"
INDEX 00 05:37:32
INDEX 01 05:38:37
TRACK 04 AUDIO
TITLE "Come See About Me"
PERFORMER "Diana Ross & The Supremes"
INDEX 00 08:15:20
INDEX 01 08:16:20
TRACK 05 AUDIO
TITLE "My World Is Empty Without You"
PERFORMER "Diana Ross & The Supremes"
INDEX 00 10:59:20
INDEX 01 11:00:07
TRACK 06 AUDIO
TITLE "Stop! In The Name Of Love"
PERFORMER "Diana Ross & The Supremes"
INDEX 00 13:33:45
INDEX 01 13:35:20
TRACK 07 AUDIO
TITLE "Back In My Arms Again"
PERFORMER "Diana Ross & The Supremes"
INDEX 00 16:28:32
INDEX 01 16:28:57
TRACK 08 AUDIO
TITLE "I Hear A Symphony"
PERFORMER "Diana Ross & The Supremes"
INDEX 00 19:20:20
INDEX 01 19:21:57
TRACK 09 AUDIO
TITLE "You Can't Hurry Love"
PERFORMER "Diana Ross & The Supremes"
INDEX 00 22:04:57
INDEX 01 22:06:32
TRACK 10 AUDIO
TITLE "Love Is Like An Itching In My Heart"
PERFORMER "Diana Ross & The Supremes"
INDEX 00 24:52:32
INDEX 01 24:53:70
TRACK 11 AUDIO
TITLE "You Keep Me Hangin' On"
PERFORMER "Diana Ross & The Supremes"
INDEX 00 27:46:57
INDEX 01 27:47:57
TRACK 12 AUDIO
TITLE "Love Is Here And Now You're Gone"
PERFORMER "Diana Ross & The Supremes"
INDEX 00 30:29:32
INDEX 01 30:30:57
TRACK 13 AUDIO
TITLE "Reflections"
PERFORMER "Diana Ross & The Supremes"
INDEX 00 33:17:20
INDEX 01 33:18:45
TRACK 14 AUDIO
TITLE "Love Child"
PERFORMER "Diana Ross & The Supremes"
INDEX 00 36:09:20
INDEX 01 36:10:07
TRACK 15 AUDIO
TITLE "I'll Try Something New"
PERFORMER "Diana Ross & The Supremes"
INDEX 00 39:06:07
INDEX 01 39:07:57
TRACK 16 AUDIO
TITLE "I'm Gonna Make You Love Me"
PERFORMER "Diana Ross & The Supremes"
INDEX 00 41:28:07
INDEX 01 41:29:32
TRACK 17 AUDIO
TITLE "Someday We'll Be Together"
PERFORMER "Diana Ross & The Supremes"
INDEX 00 44:35:70
INDEX 01 44:37:70
TRACK 18 AUDIO
TITLE "Up The Ladder To The Roof"
PERFORMER "Diana Ross & The Supremes"
INDEX 00 48:06:57
INDEX 01 48:08:32
TRACK 19 AUDIO
TITLE "Stoned Love"
PERFORMER "Diana Ross & The Supremes"
INDEX 00 51:20:20
INDEX 01 51:21:32
TRACK 20 AUDIO
TITLE "Nathan Jones"
PERFORMER "Diana Ross & The Supremes"
INDEX 00 55:29:20
INDEX 01 55:30:45