Subcategories

Dizzy Gillespie - To Diz, With Love: Live At The Blue Note (1992) {Telarc CD-83307}

Posted By: ruskaval
Dizzy Gillespie - To Diz, With Love: Live At The Blue Note (1992) {Telarc CD-83307}

Dizzy Gillespie - To Diz, With Love: Live At The Blue Note (1992) {Telarc CD-83307}
EAC rip (secure mode) | FLAC (tracks)+CUE+LOG -> 398 Mb | MP3 @320 -> 156 Mb
Full Artwork @ 300 dpi (jpg) -> 18 Mb | 5% repair rar
© 1992 Telarc | CD-83307
Jazz / Bop / Trumpet

Dizzy Gillespie's final recording, taken from a month he spent featured at the Blue Note in New York, matches the aging giant with such fellow trumpeters as Jon Faddis, Wynton Marsalis, Claudio Roditi, Wallace Roney, Red Rodney, Charlie Sepulveda and the ancient – but still brilliant – Doc Cheatham (who cuts both Diz and Faddis on "Mood Indigo"). Although Gillespie was no longer up to the competition, the love that these fellow trumpeters had for him (and some fine solos) makes this historic CD worth getting.

Personnel
Dizzy Gillespie - trumpet
Doc Cheatham (track 3), Jon Faddis (track 3), Wynton Marsalis (tracks 2 & 4), Claudio Roditi (tracks 1 & 5), Wallace Roney (tracks 1 & 5), Charlie Sepulveda (track 4), Lew Soloff (unbilled, track 5) - trumpet
Red Rodney - flugelhorn (track 2)
Junior Mance - piano
Peter Washington - bass
Kenny Washington - drums

Track Listing
01. Billie's Bounce (Parker) - 14:43
02. Confirmation (Parker) - 10:37
03. Mood Indigo (Bigard-Ellington-Mills) - 12:53
04. Straight No Chaser (Monk) - 11:29
05. A Night in Tunisia (Gillespie) - 16:40

Exact Audio Copy V1.0 beta 3 from 29. August 2011

EAC extraction logfile from 7. January 2013, 22:51

Dizzy Gillespie / To Diz With Love

Used drive : PLEXTOR DVDR PX-810UF Adapter: 5 ID: 0

Read mode : Secure
Utilize accurate stream : Yes
Defeat audio cache : Yes
Make use of C2 pointers : No

Read offset correction : 667
Overread into Lead-In and Lead-Out : No
Fill up missing offset samples with silence : Yes
Delete leading and trailing silent blocks : No
Null samples used in CRC calculations : Yes
Used interface : Native Win32 interface for Win NT & 2000
Gap handling : Appended to previous track

Used output format : User Defined Encoder
Selected bitrate : 128 kBit/s
Quality : High
Add ID3 tag : No
Command line compressor : C:\Program Files\Exact Audio Copy\Flac\flac.exe
Additional command line options : -8 -V -T "ARTIST=%artist%" -T "TITLE=%title%" -T "ALBUM=%albumtitle%" -T "DATE=%year%" -T "TRACKNUMBER=%tracknr%" -T "TOTALTRACKS=%numtracks%" -T "GENRE=%genre%" -T "ALBUMARTIST=%albumartist%" -T "ALBUM ARTIST=%albumartist%" -T "COMMENT=EAC Secure Mode, Test & Copy, AccurateRip, FLAC -8" %source%


TOC of the extracted CD

Track | Start | Length | Start sector | End sector
––––––––––––––––––––––––––––-
1 | 0:00.00 | 14:43.25 | 0 | 66249
2 | 14:43.25 | 10:37.27 | 66250 | 114051
3 | 25:20.52 | 12:52.53 | 114052 | 172004
4 | 38:13.30 | 11:28.62 | 172005 | 223666
5 | 49:42.17 | 16:40.18 | 223667 | 298684


Track 1

Filename F:\EAC WAV\01 - Billie's Bounce.wav

Pre-gap length 0:00:02.00

Peak level 98.1 %
Extraction speed 4.5 X
Track quality 99.9 %
Test CRC 4DD2B18E
Copy CRC 4DD2B18E
Cannot be verified as accurate (confidence 2) [F00A2B78], AccurateRip returned [02FD9BCD] (AR v2)
Copy OK

Track 2

Filename F:\EAC WAV\02 - Confirmation.wav

Pre-gap length 0:00:12.03

Peak level 98.6 %
Extraction speed 6.6 X
Track quality 100.0 %
Test CRC 70172A90
Copy CRC 70172A90
Cannot be verified as accurate (confidence 2) [4561D290], AccurateRip returned [26768467] (AR v2)
Copy OK

Track 3

Filename F:\EAC WAV\03 - Mood Indigo.wav

Pre-gap length 0:00:09.72

Peak level 99.6 %
Extraction speed 7.5 X
Track quality 100.0 %
Test CRC 9CEA6A0E
Copy CRC 9CEA6A0E
Cannot be verified as accurate (confidence 2) [EDF5FDB8], AccurateRip returned [D6608F1E] (AR v2)
Copy OK

Track 4

Filename F:\EAC WAV\04 - Straight No Chaser.wav

Pre-gap length 0:00:04.18

Peak level 98.3 %
Extraction speed 8.1 X
Track quality 100.0 %
Test CRC AB33C064
Copy CRC AB33C064
Cannot be verified as accurate (confidence 2) [C8CA5BF3], AccurateRip returned [6F287B4D] (AR v2)
Copy OK

Track 5

Filename F:\EAC WAV\05 - A Night In Tunisia.wav

Pre-gap length 0:00:05.55

Peak level 98.7 %
Extraction speed 9.1 X
Track quality 100.0 %
Test CRC 0958B7F0
Copy CRC 0958B7F0
Cannot be verified as accurate (confidence 2) [D57B8B34], AccurateRip returned [8C8DACCD] (AR v2)
Copy OK


No tracks could be verified as accurate
You may have a different pressing from the one(s) in the database

No errors occurred

End of status report

–– CUETools DB Plugin V2.1.3

[CTDB TOCID: sO6ub7URNOk9OOIcsa2l1di7u3I-] database access error: Pending


==== Log checksum 9894E0932A2494C7BBEB1CF9A7A5FEB46DE927A45B519562DD98836F6C7FD393 ====


Dizzy Gillespie 			  		 	 	  		 	    	 			   		  	   		  	   		 	    	 			   		 	 	  		 		   	 			   		   	  		  	   		 		 			 - To Diz, With Love: Live At The Blue Note (1992) {Telarc CD-83307}

Dizzy Gillespie - To Diz, With Love: Live At The Blue Note (1992) {Telarc CD-83307}



===