Subcategories

Dirty Heads - Swim Team (2017)

Posted By: aasana
Dirty Heads - Swim Team (2017)

Dirty Heads - Swim Team (2017)
EAC Rip | FLAC (tracks+.cue) | 00:35:06 | 234,66 MB
Alternative, Reggae, Pop | Label: Five Seven

Following in the footsteps of their California brothers Sublime, Huntington Beach's Dirty Heads mix hip-hop, reggae, and rock along with that laid-back South Cali attitude. The group formed in 2003 when punk rocker Dustin Bushnell (aka Duddy B) asked his friend rapper Jared Watson (aka Dirty J) to collaborate on a project that would focus on positive vibes and infectious grooves. Watson added singing to his vocal skills, and with percussionist Jon Olazabal joining, an acoustic trio version of Dirty Heads began playing shows and building an audience.

They soon hooked up with producer Rob Cavallo and headed into the studio to record their debut album for Warner Bros., but differences with the label had them looking for other opportunities. Still, the band was able to retain most of its work, including sessions with drummer Josh Freese, along with the late-Beatles collaborator Billy Preston in one of the keyboardist's last recordings. The finished album, Any Port in a Storm, would arrive in 2008, with a deluxe edition following in 2010. The deluxe version featured the track "Lay Me Down" with special guest Rome Ramirez of Sublime with Rome. The song would top Billboard's Alternative Songs chart just before the summer of 2010.

They followed up two years later with Cabin by the Sea and later recorded an acoustic version of the title track. This, in turn, led to an entire acoustic album in 2013 called Home: Phantoms of Summer. Dirty Heads' next album, Sound of Change, would prove to be a breakthrough for the now-veteran band, debuting at number eight on the Billboard Top 200 while topping the Independent and Alternative Albums charts upon its May 2014 release.

Building on their renewed success, Dirty Heads enlisted a bevy of industry hitmakers to work on their self-titled 2016 follow-up, which – thanks to its mainstream appeal – again charted high on the Billboard Top 200. The following year saw the band drop its sixth studio album, Swim Team, featuring the singles "Vacation" and "Staloney." Also included on the album was the track "So Glad You Made It," featuring 311's Nick Hexum.

Tracklist:
01. Dirty Heads - Staloney
02. Dirty Heads - High Tea (Feat. Jordan Miller)
03. Dirty Heads - Mad At It
04. Dirty Heads - Vacation
05. Dirty Heads - Celebrate (Feat. The Unlikely Candidates)
06. Dirty Heads - Diamonds & Pearls
07. Dirty Heads - Get Somewhere
08. Dirty Heads - So Glad You Made It (Feat. Nick Hexum)
09. Dirty Heads - God Damn Liar
10. Dirty Heads - Lonely For Me
11. Dirty Heads - West Coast

Exact Audio Copy V1.3 from 2. September 2016

EAC extraction logfile from 13. October 2017, 18:46

Dirty Heads / Swim Team

Used drive : HL-DT-STBD-RE WH16NS40 Adapter: 1 ID: 0

Read mode : Secure
Utilize accurate stream : Yes
Defeat audio cache : Yes
Make use of C2 pointers : No

Read offset correction : 6
Overread into Lead-In and Lead-Out : No
Fill up missing offset samples with silence : Yes
Delete leading and trailing silent blocks : No
Null samples used in CRC calculations : Yes
Used interface : Native Win32 interface for Win NT & 2000
Gap handling : Appended to previous track

Used output format : User Defined Encoder
Selected bitrate : 1024 kBit/s
Quality : High
Add ID3 tag : No
Command line compressor : C:\Program Files (x86)\Exact Audio Copy\Flac\flac.exe
Additional command line options : -8 -V -T "artist=%artist%" -T "title=%title%" -T "album=%albumtitle%" -T "date=%year%" -T "tracknumber=%tracknr%" -T "genre=%genre%" %source%


TOC of the extracted CD

Track | Start | Length | Start sector | End sector
––––––––––––––––––––––––––––-
1 | 0:00.00 | 2:44.59 | 0 | 12358
2 | 2:44.59 | 3:27.73 | 12359 | 27956
3 | 6:12.57 | 3:16.45 | 27957 | 42701
4 | 9:29.27 | 3:29.54 | 42702 | 58430
5 | 12:59.06 | 3:16.64 | 58431 | 73194
6 | 16:15.70 | 3:20.00 | 73195 | 88194
7 | 19:35.70 | 3:36.55 | 88195 | 104449
8 | 23:12.50 | 2:58.50 | 104450 | 117849
9 | 26:11.25 | 3:01.12 | 117850 | 131436
10 | 29:12.37 | 2:52.05 | 131437 | 144341
11 | 32:04.42 | 3:02.26 | 144342 | 158017


Track 1

Filename M:\00_Discography\Dirty Heads\(2017) Swim Team [FLAC]\01 - Staloney.wav

Pre-gap length 0:00:02.00

Peak level 99.9 %
Extraction speed 2.8 X
Track quality 100.0 %
Test CRC 518E9516
Copy CRC 518E9516
Track not present in AccurateRip database
Copy OK

Track 2

Filename M:\00_Discography\Dirty Heads\(2017) Swim Team [FLAC]\02 - High Tea (feat. Jordan Miller).wav

Peak level 99.9 %
Extraction speed 2.0 X
Track quality 100.0 %
Test CRC E5675A39
Copy CRC E5675A39
Track not present in AccurateRip database
Copy OK

Track 3

Filename M:\00_Discography\Dirty Heads\(2017) Swim Team [FLAC]\03 - Mad at It.wav

Peak level 99.9 %
Extraction speed 1.2 X
Track quality 100.0 %
Test CRC B16672B8
Copy CRC B16672B8
Track not present in AccurateRip database
Copy OK

Track 4

Filename M:\00_Discography\Dirty Heads\(2017) Swim Team [FLAC]\04 - Vacation.wav

Peak level 99.9 %
Extraction speed 1.3 X
Track quality 100.0 %
Test CRC 09054327
Copy CRC 09054327
Track not present in AccurateRip database
Copy OK

Track 5

Filename M:\00_Discography\Dirty Heads\(2017) Swim Team [FLAC]\05 - Celebrate (feat. The Unlikely Candidates).wav

Peak level 99.9 %
Extraction speed 1.2 X
Track quality 99.9 %
Test CRC EB45B681
Copy CRC EB45B681
Track not present in AccurateRip database
Copy OK

Track 6

Filename M:\00_Discography\Dirty Heads\(2017) Swim Team [FLAC]\06 - Diamonds & Pearls.wav

Peak level 99.9 %
Extraction speed 1.5 X
Track quality 100.0 %
Test CRC 3F6FC53F
Copy CRC 3F6FC53F
Track not present in AccurateRip database
Copy OK

Track 7

Filename M:\00_Discography\Dirty Heads\(2017) Swim Team [FLAC]\07 - Get Somewhere.wav

Peak level 98.9 %
Extraction speed 1.6 X
Track quality 100.0 %
Test CRC 1EDE6C53
Copy CRC 1EDE6C53
Track not present in AccurateRip database
Copy OK

Track 8

Filename M:\00_Discography\Dirty Heads\(2017) Swim Team [FLAC]\08 - So Glad You Made It (feat. Nick Hexum).wav

Peak level 100.0 %
Extraction speed 1.6 X
Track quality 100.0 %
Test CRC 65947687
Copy CRC 65947687
Track not present in AccurateRip database
Copy OK

Track 9

Filename M:\00_Discography\Dirty Heads\(2017) Swim Team [FLAC]\09 - God Damn Liar.wav

Peak level 99.9 %
Extraction speed 1.6 X
Track quality 100.0 %
Test CRC 0D3A3187
Copy CRC 0D3A3187
Track not present in AccurateRip database
Copy OK

Track 10

Filename M:\00_Discography\Dirty Heads\(2017) Swim Team [FLAC]\10 - Lonely for Me.wav

Peak level 99.9 %
Extraction speed 1.7 X
Track quality 100.0 %
Test CRC 31D2452E
Copy CRC 31D2452E
Track not present in AccurateRip database
Copy OK

Track 11

Filename M:\00_Discography\Dirty Heads\(2017) Swim Team [FLAC]\11 - West Coast.wav

Peak level 99.9 %
Extraction speed 1.7 X
Track quality 100.0 %
Test CRC AA4B9F5F
Copy CRC AA4B9F5F
Track not present in AccurateRip database
Copy OK


None of the tracks are present in the AccurateRip database

No errors occurred

End of status report

–– CUETools DB Plugin V2.1.6

[CTDB TOCID: y9jBH2az9dLXYi0Q9uLHHx0245Y-] disk not present in database
Submit result: y9jBH2az9dLXYi0Q9uLHHx0245Y- has been uploaded


==== Log checksum 0DDD7592784A67EF38167C403798E3C7FB1E2AA0B57864DFA53E6F4F0351DD90 ====