Subcategories

Dolly Parton - The Acoustic Collection 1999-2002 (2006) {3CD + Bonus DVD Sugar Hill Records SUG-CD-4008}

Posted By: ruskaval
Dolly Parton - The Acoustic Collection 1999-2002 (2006) {3CD + Bonus DVD Sugar Hill Records SUG-CD-4008}

Dolly Parton - The Acoustic Collection 1999-2002 (2006) {3CD + Bonus DVD Sugar Hill Records SUG-CD-4008}
EAC rip (secure mode) | FLAC (tracks)+CUE+LOG -> 1.20 Gb | MP3 @320 -> 639 Mb
DVD5 -> 1.26 Gb | All Regions | NTSC 4:3 | LPCM, 2ch | ~17 min | ISO Image
Full Artwork @ 300 dpi (png) -> 270 Mb (inside) | Data -> 45 Mb | 5% repair rar
© 1999-2002, 2006 Sugar Hill Records / Welk Music | SUG-CD-4008
Country / Bluegrass / Country-Folk / Country-Pop / Traditional Country / Acoustic

The four-disc box set called the Acoustic Collection: 1999-2002 assembles the three albums Dolly Parton cut for the independent Sugar Hill label, and a hodgepodge bonus DVD. The albums – The Grass Is Blue, Little Sparrow, Halos & Horns – were all critically acclaimed as they signified a return by Parton to her bluegrass and backwoods country roots. That said, there are cover versions here of many songs, including one of Led Zeppelin's infamous, ubiquitous hit, "Stairway to Heaven." The enclosed DVD features five new song mixes for "Seven Bridges Road," "Travelin' Prayer," "Train, Train," "Shine," and "I'm Gone." There are two non-Parton performances recorded at the Dolly Parton Tribute by Kasey Chambers and Sinéad O'Connor, three videos for songs from this collection, and a duet performance between Parton and Norah Jones singing "The Grass Is Blue."
Dolly Parton - The Acoustic Collection 1999-2002 (2006) {3CD + Bonus DVD Sugar Hill Records SUG-CD-4008}

Dolly Parton - The Acoustic Collection 1999-2002 (2006) {3CD + Bonus DVD Sugar Hill Records SUG-CD-4008}

Just as she was about to topple permanently into poppy histrionics and Dollywood, Parton returned to her roots and, over the course of four years, released what have un-arguably become three watermark recordings in her long brilliant, though checkered, discography.

The Grass Is Blue the first of these invigorating discs, not only pulled Parton from the precipice, it blew new life into bluegrass, itself becoming a caricature as the 'hatboys' and 'pinup cowgirls', their handlers and accountants, figured how to bland it out for mass consumption, while lookin' real authentic for the paparazzi. Dolly hooked up with producer Steve Buckingham; brought in Jerry Douglas, Sam Bush, Barry Bales, Allison Krauss, Dan Timinski, and Stuart Duncan and got back to Louvin Brothers (Cash On The Barrelhead); Mr. Flatt (I'm Gonna Sleep With One Eye Open); The Man In Black (I Still Miss Someone); Billy Joel (a raucous Travelin' Prayer) some fine originals, the likes of which she hadn't penned in years (Endless Stream of Tears, Will He Be Waiting For Me) for a brilliant return. And though it is part of a grand trilogy, it stands as its own superior work.

2001's Little Sparrow leaned more on the heart-break songs and turned the heads of those who didn't notice The Grass Is Blue. More great originals - the melodically and lyrically pure title track , Down From Dover, the cute 'n poppy Marry Me, mix seamlessly with Steve Young's always poignant Seven Bridges Road, and an inventively reworked Shine and standard bearers , I Get A Kick Out Of You and the triumphant Celtic mourning of In The Sweet By and By created a lesser recognized, but no less visceral one-two punch as Cash's American Recordings or Dylan's Time Out Of Mind and Love and Theft.

Parton commandeers the producer's chair for 2002's more gospel-influenced and adventurous Halos and Horns. Loaded with superior musicianship (as were the previous discs) and her truly great songs Shattered Image, Dagger Through The Heart, What A Heartache, Raven Dove, If Only, Jack Daniel (a 30 year old original that had gone unrecorded) leaves you wondering if the woman will ever stumble. She does, on a lackluster take of Bread's If and a forced, almost contrived remake of Zeppelin's classic rock staple Stairway To Heaven, but it only proves the woman to be human, giving promise that her next journey to her roots will uncover even more humanity.

A bonus DVD accompanies this exemplary collection, with four videos (one a CMA duet with Norah Jones); five new song mixes and two performances from the Parton tribute, Just Because I'm A Woman featuring Kasey Chambers and Sinead O'Connor. A nice extra, but the real treat is music.
Dolly Parton - The Acoustic Collection 1999-2002 (2006) {3CD + Bonus DVD Sugar Hill Records SUG-CD-4008}

Dolly Parton - The Acoustic Collection 1999-2002 (2006) {3CD + Bonus DVD Sugar Hill Records SUG-CD-4008}


dollyparton.com INFO

Track Listing:

Disc 1: The Grass Is Blue (1999, SUG-CD-3900)


01 - Travelin' Prayer
02 - Cash on the Barrelhead
03 - A Few Old Memories
04 - I'm Gonna Sleep With One Eye Open
05 - Steady as the Rain
06 - I Still Miss Someone
07 - Endless Stream of Tears
08 - Silver Dagger
09 - Train, Train
10 - I Wonder Where You Are Tonight
11 - Will He Be Waiting for Me
12 - The Grass Is Blue
13 - I Am Ready

Dolly Parton - The Acoustic Collection 1999-2002 (2006) {3CD + Bonus DVD Sugar Hill Records SUG-CD-4008}

Dolly Parton - The Acoustic Collection 1999-2002 (2006) {3CD + Bonus DVD Sugar Hill Records SUG-CD-4008}


Disc 2: Little Sparrow (2001, SUG-CD-3927)

01 - Little Sparrow
02 - Shine
03 - I Don't Believe You've Met My Baby
04 - My Blue Tears
05 - Seven Bridges Road
06 - Bluer Pastures
07 - A Tender Lie
08 - I Get a Kick Out of You
09 - Mountain Angel
10 - Marry Me
11 - Down from Dover
12 - The Beautiful Lie
13 - In the Sweet By and By
14 - Little Sparrow Reprise

Dolly Parton - The Acoustic Collection 1999-2002 (2006) {3CD + Bonus DVD Sugar Hill Records SUG-CD-4008}

Dolly Parton - The Acoustic Collection 1999-2002 (2006) {3CD + Bonus DVD Sugar Hill Records SUG-CD-4008}


Disc 3: Halos And Horns (2002, SUG-CD-3946)

01 - Halos And Horns
02 - Sugar Hill
03 - Not For Me
04 - Hello God
05 - If
06 - Shattered Image
07 - These Old Bones
08 - What A Heartache
09 - I'm Gone
10 - Raven Dove
11 - Dagger Through The Heart
12 - If Only
13 - John Daniel
14 - Stairway To Heaven

Dolly Parton - The Acoustic Collection 1999-2002 (2006) {3CD + Bonus DVD Sugar Hill Records SUG-CD-4008}

Dolly Parton - The Acoustic Collection 1999-2002 (2006) {3CD + Bonus DVD Sugar Hill Records SUG-CD-4008}


Disc 4: Bonus DVD (2006, SUG-DVD-4008)

01 - Seven Bridges Road (Vocal Mix)
02 - Travelin' Prayer (Vocal Mix)
03 - Train, Train (Instrumental Mix)
04 - Shine (Instrumental Mix)
05 - I'm Gone (Instrumental Mix)
06 - Little Sparrow
07 - Dagger Through the Heart
08 - Shine
09 - I'm Gone
10 - Dagger Through the Heart
11 - The Grass is Blue

Dolly Parton - The Acoustic Collection 1999-2002 (2006) {3CD + Bonus DVD Sugar Hill Records SUG-CD-4008}


Exact Audio Copy V1.0 beta 2 from 29. April 2011

EAC extraction logfile from 7. December 2011, 20:02

Dolly Parton / The Grass Is Blue

Used drive : SlimtypeDVD A DS8A4S Adapter: 1 ID: 0

Read mode : Secure
Utilize accurate stream : Yes
Defeat audio cache : Yes
Make use of C2 pointers : No

Read offset correction : 6
Overread into Lead-In and Lead-Out : No
Fill up missing offset samples with silence : Yes
Delete leading and trailing silent blocks : No
Null samples used in CRC calculations : Yes
Used interface : Native Win32 interface for Win NT & 2000
Gap handling : Appended to previous track

Used output format : User Defined Encoder
Selected bitrate : 256 kBit/s
Quality : High
Add ID3 tag : No
Command line compressor : C:\Program Files\Exact Audio Copy\Flac\flac.exe
Additional command line options : -8 -V -T "ARTIST=%artist%" -T "TITLE=%title%" -T "ALBUM=%albumtitle%" -T "DATE=%year%" -T "TRACKNUMBER=%tracknr%" -T "TOTALTRACKS=%numtracks%" -T "GENRE=%genre%" -T "ALBUMARTIST=%albumartist%" -T "ALBUM ARTIST=%albumartist%


TOC of the extracted CD

Track | Start | Length | Start sector | End sector
––––––––––––––––––––––––––––-
1 | 0:00.00 | 4:16.20 | 0 | 19219
2 | 4:16.20 | 3:08.00 | 19220 | 33319
3 | 7:24.20 | 4:01.35 | 33320 | 51429
4 | 11:25.55 | 3:04.35 | 51430 | 65264
5 | 14:30.15 | 3:05.05 | 65265 | 79144
6 | 17:35.20 | 3:37.50 | 79145 | 95469
7 | 21:12.70 | 2:39.52 | 95470 | 107446
8 | 23:52.47 | 4:54.68 | 107447 | 129564
9 | 28:47.40 | 2:50.05 | 129565 | 142319
10 | 31:37.45 | 3:13.37 | 142320 | 156831
11 | 34:51.07 | 3:25.58 | 156832 | 172264
12 | 38:16.65 | 3:44.57 | 172265 | 189121
13 | 42:01.47 | 2:44.38 | 189122 | 201459


Track 1

Filename C:\Users\Chris\Desktop\Upload\Dolly Parton - The Acoustic Collection 1999-2002 (2006) [FLAC] {3CD + Bonus DVD. Sugar Hill}\CD1 - The Grass Is Blue (1999, SUG-CD-3900)\01 - Travelin' Prayer.wav

Pre-gap length 0:00:02.00

Peak level 98.8 %
Extraction speed 1.1 X
Track quality 99.9 %
Test CRC 5B27483D
Copy CRC 5B27483D
Accurately ripped (confidence 2) [59E58F05] (AR v2)
Copy OK

Track 2

Filename C:\Users\Chris\Desktop\Upload\Dolly Parton - The Acoustic Collection 1999-2002 (2006) [FLAC] {3CD + Bonus DVD. Sugar Hill}\CD1 - The Grass Is Blue (1999, SUG-CD-3900)\02 - Cash on the Barrelhead.wav

Pre-gap length 0:00:00.26

Peak level 100.0 %
Extraction speed 1.3 X
Track quality 100.0 %
Test CRC B5C284D0
Copy CRC B5C284D0
Accurately ripped (confidence 2) [B2E538EB] (AR v2)
Copy OK

Track 3

Filename C:\Users\Chris\Desktop\Upload\Dolly Parton - The Acoustic Collection 1999-2002 (2006) [FLAC] {3CD + Bonus DVD. Sugar Hill}\CD1 - The Grass Is Blue (1999, SUG-CD-3900)\03 - A Few Old Memories.wav

Pre-gap length 0:00:01.13

Peak level 100.0 %
Extraction speed 1.4 X
Track quality 100.0 %
Test CRC AD3D9219
Copy CRC AD3D9219
Accurately ripped (confidence 2) [CA385241] (AR v2)
Copy OK

Track 4

Filename C:\Users\Chris\Desktop\Upload\Dolly Parton - The Acoustic Collection 1999-2002 (2006) [FLAC] {3CD + Bonus DVD. Sugar Hill}\CD1 - The Grass Is Blue (1999, SUG-CD-3900)\04 - I'm Gonna Sleep With One Eye Open.wav

Pre-gap length 0:00:00.33

Peak level 100.0 %
Extraction speed 1.4 X
Track quality 100.0 %
Test CRC 001DC2D2
Copy CRC 001DC2D2
Accurately ripped (confidence 2) [7F26E0A3] (AR v2)
Copy OK

Track 5

Filename C:\Users\Chris\Desktop\Upload\Dolly Parton - The Acoustic Collection 1999-2002 (2006) [FLAC] {3CD + Bonus DVD. Sugar Hill}\CD1 - The Grass Is Blue (1999, SUG-CD-3900)\05 - Steady as the Rain.wav

Pre-gap length 0:00:00.43

Peak level 100.0 %
Extraction speed 1.5 X
Track quality 100.0 %
Test CRC 95F9992E
Copy CRC 95F9992E
Accurately ripped (confidence 2) [8AD7A985] (AR v2)
Copy OK

Track 6

Filename C:\Users\Chris\Desktop\Upload\Dolly Parton - The Acoustic Collection 1999-2002 (2006) [FLAC] {3CD + Bonus DVD. Sugar Hill}\CD1 - The Grass Is Blue (1999, SUG-CD-3900)\06 - I Still Miss Someone.wav

Pre-gap length 0:00:00.68

Peak level 100.0 %
Extraction speed 1.6 X
Track quality 100.0 %
Test CRC 856ECDC6
Copy CRC 856ECDC6
Accurately ripped (confidence 2) [F2FCDB31] (AR v2)
Copy OK

Track 7

Filename C:\Users\Chris\Desktop\Upload\Dolly Parton - The Acoustic Collection 1999-2002 (2006) [FLAC] {3CD + Bonus DVD. Sugar Hill}\CD1 - The Grass Is Blue (1999, SUG-CD-3900)\07 - Endless Stream of Tears.wav

Pre-gap length 0:00:00.40

Peak level 100.0 %
Extraction speed 1.4 X
Track quality 99.9 %
Test CRC 627ACAEE
Copy CRC 627ACAEE
Accurately ripped (confidence 2) [47A4AAA0] (AR v2)
Copy OK

Track 8

Filename C:\Users\Chris\Desktop\Upload\Dolly Parton - The Acoustic Collection 1999-2002 (2006) [FLAC] {3CD + Bonus DVD. Sugar Hill}\CD1 - The Grass Is Blue (1999, SUG-CD-3900)\08 - Silver Dagger.wav

Pre-gap length 0:00:00.27

Peak level 100.0 %
Extraction speed 1.9 X
Track quality 100.0 %
Test CRC C82A6642
Copy CRC C82A6642
Accurately ripped (confidence 2) [973CE74E] (AR v2)
Copy OK

Track 9

Filename C:\Users\Chris\Desktop\Upload\Dolly Parton - The Acoustic Collection 1999-2002 (2006) [FLAC] {3CD + Bonus DVD. Sugar Hill}\CD1 - The Grass Is Blue (1999, SUG-CD-3900)\09 - Train, Train.wav

Pre-gap length 0:00:00.23

Peak level 100.0 %
Extraction speed 1.8 X
Track quality 100.0 %
Test CRC 9DA8536E
Copy CRC 9DA8536E
Accurately ripped (confidence 2) [BEFDA608] (AR v2)
Copy OK

Track 10

Filename C:\Users\Chris\Desktop\Upload\Dolly Parton - The Acoustic Collection 1999-2002 (2006) [FLAC] {3CD + Bonus DVD. Sugar Hill}\CD1 - The Grass Is Blue (1999, SUG-CD-3900)\10 - I Wonder Where You Are Tonight.wav

Pre-gap length 0:00:01.18

Peak level 100.0 %
Extraction speed 1.9 X
Track quality 100.0 %
Test CRC 64E4233C
Copy CRC 64E4233C
Accurately ripped (confidence 2) [ABACE816] (AR v2)
Copy OK

Track 11

Filename C:\Users\Chris\Desktop\Upload\Dolly Parton - The Acoustic Collection 1999-2002 (2006) [FLAC] {3CD + Bonus DVD. Sugar Hill}\CD1 - The Grass Is Blue (1999, SUG-CD-3900)\11 - Will He Be Waiting for Me.wav

Pre-gap length 0:00:00.07

Peak level 100.0 %
Extraction speed 2.0 X
Track quality 100.0 %
Test CRC 19AEEADA
Copy CRC 19AEEADA
Accurately ripped (confidence 2) [8B8091A6] (AR v2)
Copy OK

Track 12

Filename C:\Users\Chris\Desktop\Upload\Dolly Parton - The Acoustic Collection 1999-2002 (2006) [FLAC] {3CD + Bonus DVD. Sugar Hill}\CD1 - The Grass Is Blue (1999, SUG-CD-3900)\12 - The Grass Is Blue.wav

Pre-gap length 0:00:00.40

Peak level 100.0 %
Extraction speed 1.8 X
Track quality 99.9 %
Test CRC 565E6329
Copy CRC 565E6329
Accurately ripped (confidence 2) [CEB1F130] (AR v2)
Copy OK

Track 13

Filename C:\Users\Chris\Desktop\Upload\Dolly Parton - The Acoustic Collection 1999-2002 (2006) [FLAC] {3CD + Bonus DVD. Sugar Hill}\CD1 - The Grass Is Blue (1999, SUG-CD-3900)\13 - I Am Ready.wav

Pre-gap length 0:00:01.22

Peak level 100.0 %
Extraction speed 2.0 X
Track quality 100.0 %
Test CRC 2DB3F3B0
Copy CRC 2DB3F3B0
Accurately ripped (confidence 2) [16F76E15] (AR v2)
Copy OK


All tracks accurately ripped

No errors occurred

End of status report

==== Log checksum 26E84590F7BC11FDE6B6FD2610179996121FC1E4137D7ACD61A2D042BAC8B003 ====

–––

Exact Audio Copy V1.0 beta 2 from 29. April 2011

EAC extraction logfile from 7. December 2011, 22:20

Dolly Parton / Little Sparrow

Used drive : SlimtypeDVD A DS8A4S Adapter: 1 ID: 0

Read mode : Secure
Utilize accurate stream : Yes
Defeat audio cache : Yes
Make use of C2 pointers : No

Read offset correction : 6
Overread into Lead-In and Lead-Out : No
Fill up missing offset samples with silence : Yes
Delete leading and trailing silent blocks : No
Null samples used in CRC calculations : Yes
Used interface : Native Win32 interface for Win NT & 2000
Gap handling : Appended to previous track

Used output format : User Defined Encoder
Selected bitrate : 256 kBit/s
Quality : High
Add ID3 tag : No
Command line compressor : C:\Program Files\Exact Audio Copy\Flac\flac.exe
Additional command line options : -8 -V -T "ARTIST=%artist%" -T "TITLE=%title%" -T "ALBUM=%albumtitle%" -T "DATE=%year%" -T "TRACKNUMBER=%tracknr%" -T "TOTALTRACKS=%numtracks%" -T "GENRE=%genre%" -T "ALBUMARTIST=%albumartist%" -T "ALBUM ARTIST=%albumartist%


TOC of the extracted CD

Track | Start | Length | Start sector | End sector
––––––––––––––––––––––––––––-
1 | 0:00.00 | 4:13.50 | 0 | 19024
2 | 4:13.50 | 5:11.05 | 19025 | 42354
3 | 9:24.55 | 3:02.00 | 42355 | 56004
4 | 12:26.55 | 3:02.45 | 56005 | 69699
5 | 15:29.25 | 3:29.07 | 69700 | 85381
6 | 18:58.32 | 4:10.05 | 85382 | 104136
7 | 23:08.37 | 3:44.05 | 104137 | 120941
8 | 26:52.42 | 2:30.33 | 120942 | 132224
9 | 29:23.00 | 6:51.00 | 132225 | 163049
10 | 36:14.00 | 3:17.62 | 163050 | 177886
11 | 39:31.62 | 5:09.00 | 177887 | 201061
12 | 44:40.62 | 2:34.13 | 201062 | 212624
13 | 47:15.00 | 3:53.62 | 212625 | 230161
14 | 51:08.62 | 1:36.38 | 230162 | 237399


Track 1

Filename C:\Users\Chris\Desktop\Upload\Dolly Parton - The Acoustic Collection 1999-2002 (2006) [FLAC] {3CD + Bonus DVD. Sugar Hill}\CD2 - Little Sparrow (2001, SUG-CD-3927)\01 - Little Sparrow.wav

Pre-gap length 0:00:02.00

Peak level 100.0 %
Extraction speed 1.2 X
Track quality 100.0 %
Test CRC 6F3943A5
Copy CRC 6F3943A5
Accurately ripped (confidence 8) [4992EDF2] (AR v1)
Copy OK

Track 2

Filename C:\Users\Chris\Desktop\Upload\Dolly Parton - The Acoustic Collection 1999-2002 (2006) [FLAC] {3CD + Bonus DVD. Sugar Hill}\CD2 - Little Sparrow (2001, SUG-CD-3927)\02 - Shine.wav

Peak level 100.0 %
Extraction speed 1.2 X
Track quality 99.9 %
Test CRC 1E67D2B7
Copy CRC 1E67D2B7
Accurately ripped (confidence 8) [B1B86FA9] (AR v1)
Copy OK

Track 3

Filename C:\Users\Chris\Desktop\Upload\Dolly Parton - The Acoustic Collection 1999-2002 (2006) [FLAC] {3CD + Bonus DVD. Sugar Hill}\CD2 - Little Sparrow (2001, SUG-CD-3927)\03 - I Don't Believe You've Met My Baby.wav

Peak level 100.0 %
Extraction speed 1.4 X
Track quality 100.0 %
Test CRC AC0232E5
Copy CRC AC0232E5
Accurately ripped (confidence 8) [F476847C] (AR v1)
Copy OK

Track 4

Filename C:\Users\Chris\Desktop\Upload\Dolly Parton - The Acoustic Collection 1999-2002 (2006) [FLAC] {3CD + Bonus DVD. Sugar Hill}\CD2 - Little Sparrow (2001, SUG-CD-3927)\04 - My Blue Tears.wav

Peak level 100.0 %
Extraction speed 1.2 X
Track quality 99.9 %
Test CRC B659B6F6
Copy CRC B659B6F6
Accurately ripped (confidence 8) [3696F045] (AR v1)
Copy OK

Track 5

Filename C:\Users\Chris\Desktop\Upload\Dolly Parton - The Acoustic Collection 1999-2002 (2006) [FLAC] {3CD + Bonus DVD. Sugar Hill}\CD2 - Little Sparrow (2001, SUG-CD-3927)\05 - Seven Bridges Road.wav

Peak level 100.0 %
Extraction speed 1.5 X
Track quality 100.0 %
Test CRC 95E4E8FF
Copy CRC 95E4E8FF
Accurately ripped (confidence 8) [8A25E7B6] (AR v1)
Copy OK

Track 6

Filename C:\Users\Chris\Desktop\Upload\Dolly Parton - The Acoustic Collection 1999-2002 (2006) [FLAC] {3CD + Bonus DVD. Sugar Hill}\CD2 - Little Sparrow (2001, SUG-CD-3927)\06 - Bluer Pastures.wav

Peak level 100.0 %
Extraction speed 1.7 X
Track quality 100.0 %
Test CRC C95843FA
Copy CRC C95843FA
Accurately ripped (confidence 8) [E86485C1] (AR v1)
Copy OK

Track 7

Filename C:\Users\Chris\Desktop\Upload\Dolly Parton - The Acoustic Collection 1999-2002 (2006) [FLAC] {3CD + Bonus DVD. Sugar Hill}\CD2 - Little Sparrow (2001, SUG-CD-3927)\07 - A Tender Lie.wav

Peak level 100.0 %
Extraction speed 1.5 X
Track quality 99.9 %
Test CRC F961CB95
Copy CRC F961CB95
Accurately ripped (confidence 8) [58310E3C] (AR v1)
Copy OK

Track 8

Filename C:\Users\Chris\Desktop\Upload\Dolly Parton - The Acoustic Collection 1999-2002 (2006) [FLAC] {3CD + Bonus DVD. Sugar Hill}\CD2 - Little Sparrow (2001, SUG-CD-3927)\08 - I Get a Kick Out of You.wav

Peak level 100.0 %
Extraction speed 1.7 X
Track quality 100.0 %
Test CRC 742ED132
Copy CRC 742ED132
Accurately ripped (confidence 8) [F66CDAEB] (AR v1)
Copy OK

Track 9

Filename C:\Users\Chris\Desktop\Upload\Dolly Parton - The Acoustic Collection 1999-2002 (2006) [FLAC] {3CD + Bonus DVD. Sugar Hill}\CD2 - Little Sparrow (2001, SUG-CD-3927)\09 - Mountain Angel.wav

Peak level 100.0 %
Extraction speed 1.9 X
Track quality 99.9 %
Test CRC 51CF851A
Copy CRC 51CF851A
Accurately ripped (confidence 8) [E7476A0A] (AR v1)
Copy OK

Track 10

Filename C:\Users\Chris\Desktop\Upload\Dolly Parton - The Acoustic Collection 1999-2002 (2006) [FLAC] {3CD + Bonus DVD. Sugar Hill}\CD2 - Little Sparrow (2001, SUG-CD-3927)\10 - Marry Me.wav

Peak level 100.0 %
Extraction speed 1.9 X
Track quality 100.0 %
Test CRC D9EF43CF
Copy CRC D9EF43CF
Accurately ripped (confidence 8) [46AA3F14] (AR v1)
Copy OK

Track 11

Filename C:\Users\Chris\Desktop\Upload\Dolly Parton - The Acoustic Collection 1999-2002 (2006) [FLAC] {3CD + Bonus DVD. Sugar Hill}\CD2 - Little Sparrow (2001, SUG-CD-3927)\11 - Down from Dover.wav

Peak level 100.0 %
Extraction speed 2.1 X
Track quality 100.0 %
Test CRC B142922B
Copy CRC B142922B
Accurately ripped (confidence 8) [521ACD1C] (AR v1)
Copy OK

Track 12

Filename C:\Users\Chris\Desktop\Upload\Dolly Parton - The Acoustic Collection 1999-2002 (2006) [FLAC] {3CD + Bonus DVD. Sugar Hill}\CD2 - Little Sparrow (2001, SUG-CD-3927)\12 - The Beautiful Lie.wav

Peak level 80.2 %
Extraction speed 1.9 X
Track quality 100.0 %
Test CRC 715623A3
Copy CRC 715623A3
Accurately ripped (confidence 8) [947EEE70] (AR v1)
Copy OK

Track 13

Filename C:\Users\Chris\Desktop\Upload\Dolly Parton - The Acoustic Collection 1999-2002 (2006) [FLAC] {3CD + Bonus DVD. Sugar Hill}\CD2 - Little Sparrow (2001, SUG-CD-3927)\13 - In the Sweet By and By.wav

Peak level 100.0 %
Extraction speed 2.2 X
Track quality 100.0 %
Test CRC DC7EAD91
Copy CRC DC7EAD91
Accurately ripped (confidence 8) [02048574] (AR v1)
Copy OK

Track 14

Filename C:\Users\Chris\Desktop\Upload\Dolly Parton - The Acoustic Collection 1999-2002 (2006) [FLAC] {3CD + Bonus DVD. Sugar Hill}\CD2 - Little Sparrow (2001, SUG-CD-3927)\14 - Little Sparrow Reprise.wav

Pre-gap length 0:00:03.12

Peak level 100.0 %
Extraction speed 1.8 X
Track quality 100.0 %
Test CRC EC726449
Copy CRC EC726449
Accurately ripped (confidence 8) [BA1F9543] (AR v1)
Copy OK


All tracks accurately ripped

No errors occurred

End of status report

==== Log checksum 809F38628BB8F94A58F43A5E0238B0C226B7E761ED36F482B9A710740CED8A77 ====

–––

Exact Audio Copy V1.0 beta 2 from 29. April 2011

EAC extraction logfile from 7. December 2011, 23:43

Dolly Parton / Halos And Horns

Used drive : SlimtypeDVD A DS8A4S Adapter: 1 ID: 0

Read mode : Secure
Utilize accurate stream : Yes
Defeat audio cache : Yes
Make use of C2 pointers : No

Read offset correction : 6
Overread into Lead-In and Lead-Out : No
Fill up missing offset samples with silence : Yes
Delete leading and trailing silent blocks : No
Null samples used in CRC calculations : Yes
Used interface : Native Win32 interface for Win NT & 2000
Gap handling : Appended to previous track

Used output format : User Defined Encoder
Selected bitrate : 256 kBit/s
Quality : High
Add ID3 tag : No
Command line compressor : C:\Program Files\Exact Audio Copy\Flac\flac.exe
Additional command line options : -8 -V -T "ARTIST=%artist%" -T "TITLE=%title%" -T "ALBUM=%albumtitle%" -T "DATE=%year%" -T "TRACKNUMBER=%tracknr%" -T "TOTALTRACKS=%numtracks%" -T "GENRE=%genre%" -T "ALBUMARTIST=%albumartist%" -T "ALBUM ARTIST=%albumartist%


TOC of the extracted CD

Track | Start | Length | Start sector | End sector
––––––––––––––––––––––––––––-
1 | 0:00.00 | 3:35.08 | 0 | 16132
2 | 3:35.08 | 2:52.17 | 16133 | 29049
3 | 6:27.25 | 3:21.45 | 29050 | 44169
4 | 9:48.70 | 3:02.40 | 44170 | 57859
5 | 12:51.35 | 3:20.11 | 57860 | 72870
6 | 16:11.46 | 3:30.66 | 72871 | 88686
7 | 19:42.37 | 5:39.00 | 88687 | 114111
8 | 25:21.37 | 4:18.17 | 114112 | 133478
9 | 29:39.54 | 5:10.53 | 133479 | 156781
10 | 34:50.32 | 3:37.34 | 156782 | 173090
11 | 38:27.66 | 3:54.70 | 173091 | 190710
12 | 42:22.61 | 3:40.68 | 190711 | 207278
13 | 46:03.54 | 5:03.68 | 207279 | 230071
14 | 51:07.47 | 6:31.38 | 230072 | 259434
15 | 60:11.10 | 4:47.47 | 270835 | 292406


Track 1

Filename C:\Users\Chris\Desktop\Upload\Dolly Parton - The Acoustic Collection 1999-2002 (2006) [FLAC] {3CD + Bonus DVD. Sugar Hill}\CD3 - Halos And Horns (2002, SUG-CD-3946, Enhanced CD)\01 - Halos And Horns.wav

Pre-gap length 0:00:02.00

Peak level 98.8 %
Extraction speed 1.0 X
Track quality 99.9 %
Test CRC 2FABD3C2
Copy CRC 2FABD3C2
Accurately ripped (confidence 3) [0619402D] (AR v2)
Copy OK

Track 2

Filename C:\Users\Chris\Desktop\Upload\Dolly Parton - The Acoustic Collection 1999-2002 (2006) [FLAC] {3CD + Bonus DVD. Sugar Hill}\CD3 - Halos And Horns (2002, SUG-CD-3946, Enhanced CD)\02 - Sugar Hill.wav

Pre-gap length 0:00:02.00

Peak level 98.8 %
Extraction speed 1.2 X
Track quality 100.0 %
Test CRC CE7EB4A0
Copy CRC CE7EB4A0
Accurately ripped (confidence 3) [1A4292FB] (AR v2)
Copy OK

Track 3

Filename C:\Users\Chris\Desktop\Upload\Dolly Parton - The Acoustic Collection 1999-2002 (2006) [FLAC] {3CD + Bonus DVD. Sugar Hill}\CD3 - Halos And Horns (2002, SUG-CD-3946, Enhanced CD)\03 - Not For Me.wav

Pre-gap length 0:00:02.00

Peak level 98.8 %
Extraction speed 1.3 X
Track quality 100.0 %
Test CRC 93D7E82F
Copy CRC 93D7E82F
Accurately ripped (confidence 3) [A1DB953D] (AR v2)
Copy OK

Track 4

Filename C:\Users\Chris\Desktop\Upload\Dolly Parton - The Acoustic Collection 1999-2002 (2006) [FLAC] {3CD + Bonus DVD. Sugar Hill}\CD3 - Halos And Horns (2002, SUG-CD-3946, Enhanced CD)\04 - Hello God.wav

Pre-gap length 0:00:01.00

Peak level 98.8 %
Extraction speed 1.4 X
Track quality 100.0 %
Test CRC 74F8D055
Copy CRC 74F8D055
Accurately ripped (confidence 3) [9DF9B39D] (AR v2)
Copy OK

Track 5

Filename C:\Users\Chris\Desktop\Upload\Dolly Parton - The Acoustic Collection 1999-2002 (2006) [FLAC] {3CD + Bonus DVD. Sugar Hill}\CD3 - Halos And Horns (2002, SUG-CD-3946, Enhanced CD)\05 - If.wav

Pre-gap length 0:00:03.00

Peak level 98.8 %
Extraction speed 1.3 X
Track quality 99.9 %
Test CRC C22CCE98
Copy CRC C22CCE98
Accurately ripped (confidence 3) [55726D86] (AR v2)
Copy OK

Track 6

Filename C:\Users\Chris\Desktop\Upload\Dolly Parton - The Acoustic Collection 1999-2002 (2006) [FLAC] {3CD + Bonus DVD. Sugar Hill}\CD3 - Halos And Horns (2002, SUG-CD-3946, Enhanced CD)\06 - Shattered Image.wav

Pre-gap length 0:00:00.35

Peak level 98.8 %
Extraction speed 1.6 X
Track quality 100.0 %
Test CRC 171A692E
Copy CRC 171A692E
Accurately ripped (confidence 3) [339EDEEF] (AR v2)
Copy OK

Track 7

Filename C:\Users\Chris\Desktop\Upload\Dolly Parton - The Acoustic Collection 1999-2002 (2006) [FLAC] {3CD + Bonus DVD. Sugar Hill}\CD3 - Halos And Horns (2002, SUG-CD-3946, Enhanced CD)\07 - These Old Bones.wav

Pre-gap length 0:00:01.00

Peak level 98.8 %
Extraction speed 1.6 X
Track quality 99.9 %
Test CRC 8B247345
Copy CRC 8B247345
Accurately ripped (confidence 3) [BBFEC6DC] (AR v2)
Copy OK

Track 8

Filename C:\Users\Chris\Desktop\Upload\Dolly Parton - The Acoustic Collection 1999-2002 (2006) [FLAC] {3CD + Bonus DVD. Sugar Hill}\CD3 - Halos And Horns (2002, SUG-CD-3946, Enhanced CD)\08 - What A Heartache.wav

Pre-gap length 0:00:02.00

Peak level 98.8 %
Extraction speed 1.8 X
Track quality 100.0 %
Test CRC 807993A2
Copy CRC 807993A2
Accurately ripped (confidence 3) [81C36399] (AR v2)
Copy OK

Track 9

Filename C:\Users\Chris\Desktop\Upload\Dolly Parton - The Acoustic Collection 1999-2002 (2006) [FLAC] {3CD + Bonus DVD. Sugar Hill}\CD3 - Halos And Horns (2002, SUG-CD-3946, Enhanced CD)\09 - I'm Gone.wav

Pre-gap length 0:00:00.30

Peak level 98.8 %
Extraction speed 2.0 X
Track quality 100.0 %
Test CRC 1CBD4BA5
Copy CRC 1CBD4BA5
Accurately ripped (confidence 3) [6C2AB77A] (AR v2)
Copy OK

Track 10

Filename C:\Users\Chris\Desktop\Upload\Dolly Parton - The Acoustic Collection 1999-2002 (2006) [FLAC] {3CD + Bonus DVD. Sugar Hill}\CD3 - Halos And Horns (2002, SUG-CD-3946, Enhanced CD)\10 - Raven Dove.wav

Pre-gap length 0:00:03.15

Peak level 98.8 %
Extraction speed 1.7 X
Track quality 99.9 %
Test CRC 72FE6A88
Copy CRC 72FE6A88
Accurately ripped (confidence 3) [D3B459A1] (AR v2)
Copy OK

Track 11

Filename C:\Users\Chris\Desktop\Upload\Dolly Parton - The Acoustic Collection 1999-2002 (2006) [FLAC] {3CD + Bonus DVD. Sugar Hill}\CD3 - Halos And Horns (2002, SUG-CD-3946, Enhanced CD)\11 - Dagger Through The Heart.wav

Pre-gap length 0:00:02.00

Peak level 98.8 %
Extraction speed 2.0 X
Track quality 100.0 %
Test CRC B940B9D6
Copy CRC B940B9D6
Accurately ripped (confidence 3) [8CB2947D] (AR v2)
Copy OK

Track 12

Filename C:\Users\Chris\Desktop\Upload\Dolly Parton - The Acoustic Collection 1999-2002 (2006) [FLAC] {3CD + Bonus DVD. Sugar Hill}\CD3 - Halos And Horns (2002, SUG-CD-3946, Enhanced CD)\12 - If Only.wav

Pre-gap length 0:00:02.00

Peak level 98.8 %
Extraction speed 2.1 X
Track quality 100.0 %
Test CRC CD27B025
Copy CRC CD27B025
Accurately ripped (confidence 3) [88E32468] (AR v2)
Copy OK

Track 13

Filename C:\Users\Chris\Desktop\Upload\Dolly Parton - The Acoustic Collection 1999-2002 (2006) [FLAC] {3CD + Bonus DVD. Sugar Hill}\CD3 - Halos And Horns (2002, SUG-CD-3946, Enhanced CD)\13 - John Daniel.wav

Pre-gap length 0:00:00.60

Peak level 98.9 %
Extraction speed 2.3 X
Track quality 100.0 %
Test CRC A7BCE569
Copy CRC A7BCE569
Accurately ripped (confidence 3) [36BB3D3D] (AR v2)
Copy OK

Track 14

Filename C:\Users\Chris\Desktop\Upload\Dolly Parton - The Acoustic Collection 1999-2002 (2006) [FLAC] {3CD + Bonus DVD. Sugar Hill}\CD3 - Halos And Horns (2002, SUG-CD-3946, Enhanced CD)\14 - Stairway To Heaven.wav

Pre-gap length 0:00:00.60

Peak level 98.9 %
Extraction speed 2.4 X
Track quality 100.0 %
Test CRC 391D2E07
Copy CRC 391D2E07
Accurately ripped (confidence 3) [677BCBB9] (AR v2)
Copy OK


All tracks accurately ripped

No errors occurred

End of status report

==== Log checksum 0BEB98994DAD3C593657A1BFFB481900C5A013E53C8BB92356418636AED4F89D ====

I 01:07:58 DVD Decrypter Version 3.5.4.0 started!
I 01:07:58 Media Center Edition (6.1, Build 7601 : Service Pack 1)
I 01:07:58 Initialising SPTI…
I 01:07:58 Searching for SCSI / ATAPI devices…
I 01:07:58 Found 1 DVD-RAM/±RW!
W 01:07:59 Possible Structure Protection Found!
W 01:07:59 1 area has been marked as 'suspect'.
W 01:07:59 Dummy sectors will be inserted where necessary.
I 01:08:30 Operation Started!
I 01:08:30 Source Device: [1:0:0] Slimtype DVD A DS8A4S JL32 (D:) (ATA)
I 01:08:30 Source Media Type: DVD-ROM
I 01:08:30 Source Media Region Code: 1, 2, 3, 4, 5, 6, 7, 8
I 01:08:30 Source Media Copyright Protection System Type: None
I 01:08:30 Source Media Implementation Identifier: Roxio Toast
I 01:08:30 Destination File: C:\Users\Chris\Desktop\DOLLY_PARTON.ISO
I 01:08:30 File Splitting: None
I 01:08:30 Hardware Read Error Retries: 20
I 01:08:30 Remove Structure Protection: No
I 01:08:30 Bad Sector Removal Method: Normal
I 01:08:30 Detect Mastering Errors: No
I 01:08:30 Remove Macrovision Protection: Yes
I 01:08:30 Extracting Sectors… (LBA: 0 - 720351)
I 01:08:33 Found IFO File: VIDEO_TS.IFO - (LBA: 304 - 311)
I 01:08:33 Found VOB File: VIDEO_TS.VOB - (LBA: 312 - 368) - KEY: N/A
I 01:08:33 Found BUP File: VIDEO_TS.BUP - (LBA: 369 - 376)
I 01:08:33 Found IFO File: VTS_01_0.IFO - (LBA: 377 - 400)
I 01:08:33 Found VOB File: VTS_01_0.VOB - (LBA: 401 - 203174) - KEY: N/A
I 01:09:57 Found VOB File: VTS_01_1.VOB - (LBA: 203175 - 333717) - KEY: N/A
I 01:10:42 Found BUP File: VTS_01_0.BUP - (LBA: 333718 - 333741)
I 01:10:42 Found IFO File: VTS_02_0.IFO - (LBA: 333742 - 333750)
I 01:10:42 Found VOB File: VTS_02_0.VOB - (LBA: 333751 - 333807) - KEY: N/A
I 01:10:42 Found VOB File: VTS_02_1.VOB - (LBA: 333808 - 351023) - KEY: N/A
I 01:10:48 Found BUP File: VTS_02_0.BUP - (LBA: 351024 - 351032)
I 01:10:48 Found IFO File: VTS_03_0.IFO - (LBA: 351033 - 351041)
I 01:10:48 Found VOB File: VTS_03_0.VOB - (LBA: 351042 - 351098) - KEY: N/A
I 01:10:48 Found VOB File: VTS_03_1.VOB - (LBA: 351099 - 476071) - KEY: N/A
I 01:11:27 Found BUP File: VTS_03_0.BUP - (LBA: 476072 - 476080)
I 01:11:27 Found IFO File: VTS_04_0.IFO - (LBA: 476081 - 476089)
I 01:11:28 Found VOB File: VTS_04_0.VOB - (LBA: 476090 - 476146) - KEY: N/A
I 01:11:28 Found VOB File: VTS_04_1.VOB - (LBA: 476147 - 606941) - KEY: N/A
I 01:12:06 Found BUP File: VTS_04_0.BUP - (LBA: 606942 - 606950)
I 01:12:06 Found IFO File: VTS_05_0.IFO - (LBA: 606951 - 606959)
I 01:12:06 Found VOB File: VTS_05_0.VOB - (LBA: 606960 - 607016) - KEY: N/A
I 01:12:06 Found VOB File: VTS_05_1.VOB - (LBA: 607017 - 720328) - KEY: N/A
I 01:12:38 Found BUP File: VTS_05_0.BUP - (LBA: 720329 - 720337)
I 01:12:38 Operation Successfully Completed! - Duration: 00:04:08
I 01:12:38 Average Read Rate: 5,809 KB/s (4.2x) - Maximum Read Rate: 7,451 KB/s (5.4x)


Dolly Parton - The Acoustic Collection 1999-2002 (2006) {3CD + Bonus DVD Sugar Hill Records SUG-CD-4008}

Dolly Parton - The Acoustic Collection 1999-2002 (2006) {3CD + Bonus DVD Sugar Hill Records SUG-CD-4008}

Dolly Parton - The Acoustic Collection 1999-2002 (2006) {3CD + Bonus DVD Sugar Hill Records SUG-CD-4008}

Dolly Parton - The Acoustic Collection 1999-2002 (2006) {3CD + Bonus DVD Sugar Hill Records SUG-CD-4008}

Dolly Parton - The Acoustic Collection 1999-2002 (2006) {3CD + Bonus DVD Sugar Hill Records SUG-CD-4008}

Dolly Parton - The Acoustic Collection 1999-2002 (2006) {3CD + Bonus DVD Sugar Hill Records SUG-CD-4008}



===