Subcategories

Don Braden - Organic (1995) {epicure-550 Music BK66873}

Posted By: ruskaval
Don Braden - Organic (1995) {epicure-550 Music BK66873}

Don Braden - Organic (1995) {epicure-550 Music BK66873}
EAC rip (secure mode) | FLAC (tracks)+CUE+LOG -> 382 Mb | MP3 @320 -> 148 Mb
Full Artwork @ 300 dpi (jpg) -> 16 Mb | 5% repair rar
© 1995 epicure-550 Music / Sony Music | BK 66873
Jazz / Post Bop / Groove / Soul Jazz / Saxophone / Organ

Don Braden is an impressive tenor saxophonist whose style pushes at the boundaries of hard bop while staying a solid part of the tradition. He was raised in Louisville, KY, and began on tenor when he was 13; within two years, he was playing professionally. He played in the McDonald's All-American High School Jazz Band and, although he studied engineering at Harvard (1981-1984), Braden also played in the Harvard jazz band. In 1984, Braden moved to New York, working with the Harper Brothers, Dr. Lonnie Smith, and Betty Carter (with whom he made his recording debut).

He toured with Wynton Marsalis (as Branford Marsalis' first replacement) during 1986-1987 and since then has played in many settings, including with Roy Haynes, Tony Williams, Freddie Hubbard, J.J. Johnson, Tom Harrell, Art Farmer, and the Mingus Big Band. As a leader, Braden has recorded for Criss Cross, Landmark, Epicure, and RCA.
Don Braden - Organic (1995) {epicure-550 Music BK66873}


Musicians
Saxophone Don Braden
Saxophone David "Fathead" Newman
Organ Jack McDuff
Organ Larry Goldings
Flugelhorn, Trumpet Tom Harrell
Guitar Russell Malone
Drums Cecil Brooks III
Drums Winard Harper
Percussion Leon Parker

Tracklisting
01 Moonglow 05:06
02 Saving All My Love For You 07:07
03 Walkin' The Dog 07:42
04 Brighter Days 06:12
05 Cousin Esau 07:10
06 Twister 06:09
07 Belief 04:43
08 It Might As Well Be Spring 07:18
09 Organic 07:20
10 Plain Ol' Blues 03:18

Exact Audio Copy V1.1 from 23. June 2015

EAC extraction logfile from 5. February 2018, 18:40

Don Braden / Organic

Used drive : MATSHITADVD+-RW SW830 Adapter: 1 ID: 0

Read mode : Secure
Utilize accurate stream : Yes
Defeat audio cache : Yes
Make use of C2 pointers : No

Read offset correction : 6
Overread into Lead-In and Lead-Out : No
Fill up missing offset samples with silence : Yes
Delete leading and trailing silent blocks : No
Null samples used in CRC calculations : Yes
Used interface : Native Win32 interface for Win NT & 2000
Gap handling : Appended to previous track

Used output format : User Defined Encoder
Selected bitrate : 896 kBit/s
Quality : High
Add ID3 tag : No
Command line compressor : C:\Program Files (x86)\Exact Audio Copy\Flac\flac.exe
Additional command line options : -8 -V -T "ARTIST=%artist%" -T "TITLE=%title%" -T "ALBUM=%albumtitle%" -T "DATE=%year%" -T "TRACKNUMBER=%tracknr%" -T "TOTALTRACKS=%numtracks%" -T "GENRE=%genre%" -T "ALBUMARTIST=%albumartist%" -T "ALBUM ARTIST=%albumartist%" -T "COMMENT=EAC Secure Mode, Test & Copy, AccurateRip, FLAC -8" %source%


TOC of the extracted CD

Track | Start | Length | Start sector | End sector
––––––––––––––––––––––––––––-
1 | 0:00.00 | 5:05.67 | 0 | 22941
2 | 5:05.67 | 7:07.08 | 22942 | 54974
3 | 12:13.00 | 7:42.40 | 54975 | 89664
4 | 19:55.40 | 6:12.40 | 89665 | 117604
5 | 26:08.05 | 7:10.07 | 117605 | 149861
6 | 33:18.12 | 6:09.25 | 149862 | 177561
7 | 39:27.37 | 4:43.72 | 177562 | 198858
8 | 44:11.34 | 7:18.08 | 198859 | 231716
9 | 51:29.42 | 7:20.13 | 231717 | 264729
10 | 58:49.55 | 3:16.32 | 264730 | 279461


Track 1

Filename G:\New Rips\Don Braden - Organic (1995) [FLAC]\01 - Moonglow.wav

Pre-gap length 0:00:02.00

Peak level 100.0 %
Extraction speed 5.0 X
Track quality 100.0 %
Test CRC 6D433E02
Copy CRC 6D433E02
Accurately ripped (confidence 6) [EA23B828] (AR v2)
Copy OK

Track 2

Filename G:\New Rips\Don Braden - Organic (1995) [FLAC]\02 - Saving All My Love For You.wav

Peak level 100.0 %
Extraction speed 5.9 X
Track quality 100.0 %
Test CRC 5F474555
Copy CRC 5F474555
Accurately ripped (confidence 5) [96DFA5F3] (AR v2)
Copy OK

Track 3

Filename G:\New Rips\Don Braden - Organic (1995) [FLAC]\03 - Walkin The Dog.wav

Pre-gap length 0:00:01.33

Peak level 52.4 %
Extraction speed 6.6 X
Track quality 100.0 %
Test CRC 95D11CE5
Copy CRC 95D11CE5
Accurately ripped (confidence 6) [BA5F48F8] (AR v2)
Copy OK

Track 4

Filename G:\New Rips\Don Braden - Organic (1995) [FLAC]\04 - Brighter Days.wav

Pre-gap length 0:00:01.58

Peak level 100.0 %
Extraction speed 7.1 X
Track quality 100.0 %
Test CRC E0FD78D2
Copy CRC E0FD78D2
Accurately ripped (confidence 6) [97F8B916] (AR v2)
Copy OK

Track 5

Filename G:\New Rips\Don Braden - Organic (1995) [FLAC]\05 - Cousin Esau.wav

Pre-gap length 0:00:02.20

Peak level 98.8 %
Extraction speed 7.7 X
Track quality 100.0 %
Test CRC BF2997D7
Copy CRC BF2997D7
Accurately ripped (confidence 6) [D0B6F33D] (AR v2)
Copy OK

Track 6

Filename G:\New Rips\Don Braden - Organic (1995) [FLAC]\06 - Twister.wav

Pre-gap length 0:00:00.11

Peak level 97.6 %
Extraction speed 8.1 X
Track quality 100.0 %
Test CRC 55DDD123
Copy CRC 55DDD123
Accurately ripped (confidence 6) [11DCA8BC] (AR v2)
Copy OK

Track 7

Filename G:\New Rips\Don Braden - Organic (1995) [FLAC]\07 - Belief.wav

Pre-gap length 0:00:00.47

Peak level 93.6 %
Extraction speed 8.2 X
Track quality 100.0 %
Test CRC 1C6784C6
Copy CRC 1C6784C6
Accurately ripped (confidence 6) [95E12B67] (AR v2)
Copy OK

Track 8

Filename G:\New Rips\Don Braden - Organic (1995) [FLAC]\08 - It Might As Well Be Spring.wav

Pre-gap length 0:00:01.37

Peak level 86.4 %
Extraction speed 8.9 X
Track quality 100.0 %
Test CRC F11EB1A3
Copy CRC F11EB1A3
Accurately ripped (confidence 6) [51AB6E6F] (AR v2)
Copy OK

Track 9

Filename G:\New Rips\Don Braden - Organic (1995) [FLAC]\09 - Organic.wav

Pre-gap length 0:00:00.02

Peak level 100.0 %
Extraction speed 9.3 X
Track quality 100.0 %
Test CRC C141C9C9
Copy CRC C141C9C9
Accurately ripped (confidence 6) [F3C2F464] (AR v2)
Copy OK

Track 10

Filename G:\New Rips\Don Braden - Organic (1995) [FLAC]\10 - Plain Ol Blues.wav

Peak level 96.0 %
Extraction speed 8.8 X
Track quality 100.0 %
Test CRC E5B84471
Copy CRC E5B84471
Accurately ripped (confidence 6) [D708405D] (AR v2)
Copy OK


All tracks accurately ripped

No errors occurred

End of status report

–– CUETools DB Plugin V2.1.6

[CTDB TOCID: mjO3yMx.M2Aw9mh.kuCPbpwqVhc-] found
Submit result: mjO3yMx.M2Aw9mh.kuCPbpwqVhc- has been confirmed
Track | CTDB Status
1 | (6/6) Accurately ripped
2 | (6/6) Accurately ripped
3 | (6/6) Accurately ripped
4 | (6/6) Accurately ripped
5 | (6/6) Accurately ripped
6 | (6/6) Accurately ripped
7 | (6/6) Accurately ripped
8 | (6/6) Accurately ripped
9 | (6/6) Accurately ripped
10 | (6/6) Accurately ripped


==== Log checksum 24A3CE31115D1468F261874D37DCAB32A937C1DB9680CD289C8D26919F6688DD ====


Don Braden - Organic (1995) {epicure-550 Music BK66873}

Don Braden - Organic (1995) {epicure-550 Music BK66873}



===