Don Byas - Complete 1946-1951 European Small Group Master Takes (2001) {3CD Set Definitive Records DRCD 11214}

Posted By: ruskaval
Don Byas - Complete 1946-1951 European Small Group Master Takes (2001) {3CD Set Definitive Records DRCD 11214}

Don Byas - Complete 1946-1951 European Small Group Master Takes (2001) {3CD Set Definitive Records DRCD 11214}
EAC rip (secure mode) | FLAC (tracks)+CUE+LOG -> 597 Mb | MP3 @320 -> 361 Mb
Full Artwork @ 300 dpi (png) -> 79 Mb | 5% repair rar
© 1946-51, 2001 Definitive Records / Disconforme | DRCD 11214
Jazz / Bop / Swing / Saxophone

The European recordings by a jazzmen who played a crucial role in the transition from Swing to Bop. Only master takes.

One of the greatest of all tenor players, Don Byas' decision to move permanently to Europe in 1946 resulted in him being vastly underrated in jazz history books. His knowledge of chords rivalled Coleman Hawkins, and, due to their similarity in tones, Byas can be considered an extension of the elder tenor. He played with many top swing bands, including those of Lionel Hampton (1935), Buck Clayton (1936), Don Redman, Lucky Millinder, Andy Kirk (1939-1940), and most importantly Count Basie (1941-1943).

An advanced swing stylist, Byas' playing looked toward bop. He jammed at Minton's Playhouse in the early '40s, appeared on 52nd Street with Dizzy Gillespie, and performed a pair of stunning duets with bassist Slam Stewart at a 1944 Town Hall concert. After recording extensively during 1945-1946 (often as a leader), Byas went to Europe with Don Redman's band, and (with the exception of a 1970 appearance at the Newport Jazz Festival) never came back to the U.S. He lived in France, the Netherlands, and Denmark; often appeared at festivals; and worked steadily. Whenever American players were touring, they would ask for Byas, who had opportunities to perform with Duke Ellington, Bud Powell, Kenny Clarke, Dizzy Gillespie, Jazz at the Philharmonic (including a recorded tenor battle with Hawkins and Stan Getz), Art Blakey, and (on a 1968 recording) Ben Webster. Byas also recorded often in the 1950s, but was largely forgotten in the U.S. by the time of his death.
Don Byas - Complete 1946-1951 European Small Group Master Takes (2001) {3CD Set Definitive Records DRCD 11214}


Musicians:
Don Byas - tenor saxophone

and many more (see booklet)…

Track Listings:
Disc: 1

1. Working Eyes
2. Gloria
3. Peanut Butter Blues
4. Mohaawk Special
5. I'm Beginning to See the Light
6. Rosetta
7. Ain; T Misbehavin'
8. Body and Soul
9. Blue and Sentimental
10. Mad Monk
11. Please Don't Talk About Me When I'm Gone
12. Hour of Parting
13. I Can't Get Started
14. Billie's Bounce
15. I Surrender, Dear
16. Walking Around
17. How High the Moon
18. Red Cross

Don Byas - Complete 1946-1951 European Small Group Master Takes (2001) {3CD Set Definitive Records DRCD 11214}


Disc: 2
1. Laura
2. Cement Mixer
3. Dynamo "A"
4. These Foolish Things
5. Humoresque
6. Stormy Weather
7. Riffin' and Jivin'
8. I Can't Explain
9. Blues for Panassie
10. Janine
11. Byas Jump
12. What Is This Thing Called Love?
13. Yesterdays
14. St. Louis Blues
15. Lover Man
16. Liza
17. Blues at Noon

Don Byas - Complete 1946-1951 European Small Group Master Takes (2001) {3CD Set Definitive Records DRCD 11214}


Disc: 3
1. Summertime
2. It's the Talk of the Town
3. Stardust
4. Pretty Girl Is Like a Melody
5. Old Man River
6. Flamingo
7. Night and Day
8. Man I Love
9. Georgia on My Mind
10. Easy to Love
11. Over the Rainbow
12. Where or When
13. Just One of Those Things
14. Mean to Me
15. Live and Love Tonight
16. I Know That You Know
17. Blue Lou
18. You're Lucky to Me
19. Tenderly Gross
20. C'est Vous Cjérie
21. Chloe

Don Byas - Complete 1946-1951 European Small Group Master Takes (2001) {3CD Set Definitive Records DRCD 11214}


Exact Audio Copy V1.0 beta 2 from 29. April 2011

EAC extraction logfile from 26. November 2011, 15:58

Don Byas / CD1

Used drive : HL-DT-STDVDRAM_GT30N Adapter: 1 ID: 0

Read mode : Secure
Utilize accurate stream : Yes
Defeat audio cache : Yes
Make use of C2 pointers : No

Read offset correction : 103
Overread into Lead-In and Lead-Out : No
Fill up missing offset samples with silence : Yes
Delete leading and trailing silent blocks : No
Null samples used in CRC calculations : Yes
Used interface : Native Win32 interface for Win NT & 2000
Gap handling : Appended to previous track

Used output format : User Defined Encoder
Selected bitrate : 640 kBit/s
Quality : High
Add ID3 tag : No
Command line compressor : C:\Program Files\Exact Audio Copyv1.0b2\Flac\flac.exe
Additional command line options : -8 -V -T "ARTIST=%artist%" -T "TITLE=%title%" -T "ALBUM=%albumtitle%" -T "DATE=%year%" -T "TRACKNUMBER=%tracknr%" -T "TOTALTRACKS=%numtracks%" -T "GENRE=%genre%" -T "ALBUMARTIST=%albumartist%" -T "ALBUM ARTIST=%albumartist%


TOC of the extracted CD

Track | Start | Length | Start sector | End sector
––––––––––––––––––––––––––––-
1 | 0:00.00 | 2:59.09 | 0 | 13433
2 | 2:59.09 | 3:07.53 | 13434 | 27511
3 | 6:06.62 | 2:52.53 | 27512 | 40464
4 | 8:59.40 | 3:21.15 | 40465 | 55554
5 | 12:20.55 | 2:26.16 | 55555 | 66520
6 | 14:46.71 | 2:49.70 | 66521 | 79265
7 | 17:36.66 | 2:47.31 | 79266 | 91821
8 | 20:24.22 | 2:58.48 | 91822 | 105219
9 | 23:22.70 | 2:44.41 | 105220 | 117560
10 | 26:07.36 | 2:41.14 | 117561 | 129649
11 | 28:48.50 | 2:50.22 | 129650 | 142421
12 | 31:38.72 | 3:25.74 | 142422 | 157870
13 | 35:04.71 | 2:36.34 | 157871 | 169604
14 | 37:41.30 | 2:51.14 | 169605 | 182443
15 | 40:32.44 | 3:12.27 | 182444 | 196870
16 | 43:44.71 | 2:44.34 | 196871 | 209204
17 | 46:29.30 | 2:39.66 | 209205 | 221195
18 | 49:09.21 | 2:40.24 | 221196 | 233219


Track 1

Filename I:\my upload\Don Byas - Complete 1946-1951 European Small Group Master Takes (2001) [FLAC] {DRCD 11214}\CD1\01 - Working Eyes.wav

Pre-gap length 0:00:02.00

Peak level 100.0 %
Extraction speed 1.1 X
Track quality 100.0 %
Test CRC F381EC9D
Copy CRC F381EC9D
Accurately ripped (confidence 2) [D031A917] (AR v1)
Copy OK

Track 2

Filename I:\my upload\Don Byas - Complete 1946-1951 European Small Group Master Takes (2001) [FLAC] {DRCD 11214}\CD1\02 - Gloria.wav

Pre-gap length 0:00:03.00

Peak level 100.0 %
Extraction speed 1.2 X
Track quality 100.0 %
Test CRC 8113160C
Copy CRC 8113160C
Accurately ripped (confidence 2) [0960D13F] (AR v1)
Copy OK

Track 3

Filename I:\my upload\Don Byas - Complete 1946-1951 European Small Group Master Takes (2001) [FLAC] {DRCD 11214}\CD1\03 - Peanut Butter Blues.wav

Pre-gap length 0:00:03.00

Peak level 100.0 %
Extraction speed 1.3 X
Track quality 100.0 %
Test CRC 3687B112
Copy CRC 3687B112
Accurately ripped (confidence 2) [C62B1C9B] (AR v1)
Copy OK

Track 4

Filename I:\my upload\Don Byas - Complete 1946-1951 European Small Group Master Takes (2001) [FLAC] {DRCD 11214}\CD1\04 - The Mohawk Special.wav

Pre-gap length 0:00:03.00

Peak level 100.0 %
Extraction speed 1.2 X
Track quality 99.9 %
Test CRC 4A5F51C7
Copy CRC 4A5F51C7
Accurately ripped (confidence 2) [6412BA95] (AR v1)
Copy OK

Track 5

Filename I:\my upload\Don Byas - Complete 1946-1951 European Small Group Master Takes (2001) [FLAC] {DRCD 11214}\CD1\05 - I'm Beginning to See the Light.wav

Pre-gap length 0:00:03.00

Peak level 100.0 %
Extraction speed 1.4 X
Track quality 100.0 %
Test CRC 1D4C6D5E
Copy CRC 1D4C6D5E
Accurately ripped (confidence 2) [EB7BE562] (AR v1)
Copy OK

Track 6

Filename I:\my upload\Don Byas - Complete 1946-1951 European Small Group Master Takes (2001) [FLAC] {DRCD 11214}\CD1\06 - Rosetta.wav

Pre-gap length 0:00:03.00

Peak level 100.0 %
Extraction speed 1.5 X
Track quality 100.0 %
Test CRC C13DE39B
Copy CRC C13DE39B
Accurately ripped (confidence 2) [6C2C25DF] (AR v1)
Copy OK

Track 7

Filename I:\my upload\Don Byas - Complete 1946-1951 European Small Group Master Takes (2001) [FLAC] {DRCD 11214}\CD1\07 - Ain't Misbehavin.wav

Pre-gap length 0:00:03.00

Peak level 100.0 %
Extraction speed 1.6 X
Track quality 100.0 %
Test CRC 7003F36B
Copy CRC 7003F36B
Accurately ripped (confidence 2) [7FC98904] (AR v1)
Copy OK

Track 8

Filename I:\my upload\Don Byas - Complete 1946-1951 European Small Group Master Takes (2001) [FLAC] {DRCD 11214}\CD1\08 - Body and Soul.wav

Pre-gap length 0:00:03.00

Peak level 100.0 %
Extraction speed 1.5 X
Track quality 99.9 %
Test CRC 460388C0
Copy CRC 460388C0
Accurately ripped (confidence 2) [6BFA11EE] (AR v1)
Copy OK

Track 9

Filename I:\my upload\Don Byas - Complete 1946-1951 European Small Group Master Takes (2001) [FLAC] {DRCD 11214}\CD1\09 - Blue and Sentimental.wav

Pre-gap length 0:00:03.00

Peak level 100.0 %
Extraction speed 1.8 X
Track quality 100.0 %
Test CRC B272D15C
Copy CRC B272D15C
Accurately ripped (confidence 2) [625E6290] (AR v1)
Copy OK

Track 10

Filename I:\my upload\Don Byas - Complete 1946-1951 European Small Group Master Takes (2001) [FLAC] {DRCD 11214}\CD1\10 - Mad Monk.wav

Pre-gap length 0:00:03.00

Peak level 100.0 %
Extraction speed 1.8 X
Track quality 100.0 %
Test CRC 17FE49EC
Copy CRC 17FE49EC
Accurately ripped (confidence 2) [8B467209] (AR v1)
Copy OK

Track 11

Filename I:\my upload\Don Byas - Complete 1946-1951 European Small Group Master Takes (2001) [FLAC] {DRCD 11214}\CD1\11 - Please Don't Talk About Me When I'm Gone.wav

Pre-gap length 0:00:03.00

Peak level 100.0 %
Extraction speed 1.6 X
Track quality 99.9 %
Test CRC 06E633D4
Copy CRC 06E633D4
Accurately ripped (confidence 2) [20970726] (AR v1)
Copy OK

Track 12

Filename I:\my upload\Don Byas - Complete 1946-1951 European Small Group Master Takes (2001) [FLAC] {DRCD 11214}\CD1\12 - The Hour of Parting.wav

Pre-gap length 0:00:03.00

Peak level 100.0 %
Extraction speed 2.0 X
Track quality 100.0 %
Test CRC 157AAABC
Copy CRC 157AAABC
Accurately ripped (confidence 2) [9A142A9F] (AR v1)
Copy OK

Track 13

Filename I:\my upload\Don Byas - Complete 1946-1951 European Small Group Master Takes (2001) [FLAC] {DRCD 11214}\CD1\13 - I Can't Get Started.wav

Pre-gap length 0:00:03.00

Peak level 100.0 %
Extraction speed 2.0 X
Track quality 100.0 %
Test CRC D77FFF6D
Copy CRC D77FFF6D
Accurately ripped (confidence 2) [59E2874B] (AR v1)
Copy OK

Track 14

Filename I:\my upload\Don Byas - Complete 1946-1951 European Small Group Master Takes (2001) [FLAC] {DRCD 11214}\CD1\14 - Billie's Bounce.wav

Pre-gap length 0:00:03.00

Peak level 100.0 %
Extraction speed 2.1 X
Track quality 100.0 %
Test CRC 78BD8389
Copy CRC 78BD8389
Accurately ripped (confidence 2) [68E74C6B] (AR v1)
Copy OK

Track 15

Filename I:\my upload\Don Byas - Complete 1946-1951 European Small Group Master Takes (2001) [FLAC] {DRCD 11214}\CD1\15 - I Surrender, Dear.wav

Pre-gap length 0:00:03.00

Peak level 100.0 %
Extraction speed 2.2 X
Track quality 100.0 %
Test CRC D7C1D1BF
Copy CRC D7C1D1BF
Accurately ripped (confidence 2) [04F5DF04] (AR v1)
Copy OK

Track 16

Filename I:\my upload\Don Byas - Complete 1946-1951 European Small Group Master Takes (2001) [FLAC] {DRCD 11214}\CD1\16 - Walking Around.wav

Pre-gap length 0:00:03.00

Peak level 100.0 %
Extraction speed 2.2 X
Track quality 100.0 %
Test CRC 50552A1B
Copy CRC 50552A1B
Accurately ripped (confidence 2) [8164629B] (AR v1)
Copy OK

Track 17

Filename I:\my upload\Don Byas - Complete 1946-1951 European Small Group Master Takes (2001) [FLAC] {DRCD 11214}\CD1\17 - How High the Moon.wav

Pre-gap length 0:00:03.00

Peak level 100.0 %
Extraction speed 2.2 X
Track quality 100.0 %
Test CRC 1881D962
Copy CRC 1881D962
Accurately ripped (confidence 2) [9A47AF3D] (AR v1)
Copy OK

Track 18

Filename I:\my upload\Don Byas - Complete 1946-1951 European Small Group Master Takes (2001) [FLAC] {DRCD 11214}\CD1\18 - Red Cross.wav

Pre-gap length 0:00:03.00

Peak level 100.0 %
Extraction speed 1.9 X
Track quality 99.9 %
Test CRC 95E6BFCC
Copy CRC 95E6BFCC
Track not present in AccurateRip database
Copy OK


17 track(s) accurately ripped
1 track(s) not present in the AccurateRip database

Some tracks could not be verified as accurate

No errors occurred

End of status report

==== Log checksum FC7985A3C34F7D84DCC6E5A66AB5FFB08047B7B6401777F63B6B7A5935284545 ====

Exact Audio Copy V1.0 beta 2 from 29. April 2011

EAC extraction logfile from 26. November 2011, 18:13

Don Byas / CD2

Used drive : HL-DT-STDVDRAM_GT30N Adapter: 1 ID: 0

Read mode : Secure
Utilize accurate stream : Yes
Defeat audio cache : Yes
Make use of C2 pointers : No

Read offset correction : 103
Overread into Lead-In and Lead-Out : No
Fill up missing offset samples with silence : Yes
Delete leading and trailing silent blocks : No
Null samples used in CRC calculations : Yes
Used interface : Native Win32 interface for Win NT & 2000
Gap handling : Appended to previous track

Used output format : User Defined Encoder
Selected bitrate : 640 kBit/s
Quality : High
Add ID3 tag : No
Command line compressor : C:\Program Files\Exact Audio Copyv1.0b2\Flac\flac.exe
Additional command line options : -8 -V -T "ARTIST=%artist%" -T "TITLE=%title%" -T "ALBUM=%albumtitle%" -T "DATE=%year%" -T "TRACKNUMBER=%tracknr%" -T "TOTALTRACKS=%numtracks%" -T "GENRE=%genre%" -T "ALBUMARTIST=%albumartist%" -T "ALBUM ARTIST=%albumartist%


TOC of the extracted CD

Track | Start | Length | Start sector | End sector
––––––––––––––––––––––––––––-
1 | 0:00.00 | 3:44.06 | 0 | 16805
2 | 3:44.06 | 2:52.51 | 16806 | 29756
3 | 6:36.57 | 3:26.61 | 29757 | 45267
4 | 10:03.43 | 3:07.05 | 45268 | 59297
5 | 13:10.48 | 2:54.58 | 59298 | 72405
6 | 16:05.31 | 3:13.60 | 72406 | 86940
7 | 19:19.16 | 2:51.25 | 86941 | 99790
8 | 22:10.41 | 2:30.10 | 99791 | 111050
9 | 24:40.51 | 2:53.04 | 111051 | 124029
10 | 27:33.55 | 2:01.09 | 124030 | 133113
11 | 29:34.64 | 2:48.20 | 133114 | 145733
12 | 32:23.09 | 2:28.29 | 145734 | 156862
13 | 34:51.38 | 2:33.44 | 156863 | 168381
14 | 37:25.07 | 3:05.03 | 168382 | 182259
15 | 40:30.10 | 2:37.43 | 182260 | 194077
16 | 43:07.53 | 2:58.12 | 194078 | 207439
17 | 46:05.65 | 2:54.36 | 207440 | 220525


Track 1

Filename I:\my upload\Don Byas - Complete 1946-1951 European Small Group Master Takes (2001) [FLAC] {DRCD 11214}\CD2\01 - Laura.wav

Pre-gap length 0:00:02.00

Peak level 100.0 %
Extraction speed 1.1 X
Track quality 99.9 %
Test CRC 2C09478F
Copy CRC 2C09478F
Accurately ripped (confidence 2) [C6CABF78] (AR v1)
Copy OK

Track 2

Filename I:\my upload\Don Byas - Complete 1946-1951 European Small Group Master Takes (2001) [FLAC] {DRCD 11214}\CD2\02 - Cement Mixer.wav

Pre-gap length 0:00:03.00

Peak level 100.0 %
Extraction speed 1.3 X
Track quality 100.0 %
Test CRC 321A05B1
Copy CRC 321A05B1
Accurately ripped (confidence 2) [51625A27] (AR v1)
Copy OK

Track 3

Filename I:\my upload\Don Byas - Complete 1946-1951 European Small Group Master Takes (2001) [FLAC] {DRCD 11214}\CD2\03 - Dynamo ''A''.wav

Pre-gap length 0:00:03.00

Peak level 100.0 %
Extraction speed 1.2 X
Track quality 99.9 %
Test CRC A452F127
Copy CRC A452F127
Accurately ripped (confidence 2) [D8135ACF] (AR v1)
Copy OK

Track 4

Filename I:\my upload\Don Byas - Complete 1946-1951 European Small Group Master Takes (2001) [FLAC] {DRCD 11214}\CD2\04 - These Foolish Things.wav

Pre-gap length 0:00:03.00

Peak level 100.0 %
Extraction speed 1.4 X
Track quality 100.0 %
Test CRC 4A3D4E2B
Copy CRC 4A3D4E2B
Accurately ripped (confidence 2) [EC77E386] (AR v1)
Copy OK

Track 5

Filename I:\my upload\Don Byas - Complete 1946-1951 European Small Group Master Takes (2001) [FLAC] {DRCD 11214}\CD2\05 - Humoresque.wav

Pre-gap length 0:00:03.00

Peak level 100.0 %
Extraction speed 1.5 X
Track quality 100.0 %
Test CRC FEF6D96D
Copy CRC FEF6D96D
Accurately ripped (confidence 2) [E974CB9E] (AR v1)
Copy OK

Track 6

Filename I:\my upload\Don Byas - Complete 1946-1951 European Small Group Master Takes (2001) [FLAC] {DRCD 11214}\CD2\06 - Stormy Weather.wav

Pre-gap length 0:00:03.00

Peak level 100.0 %
Extraction speed 1.6 X
Track quality 100.0 %
Test CRC F22DFD7C
Copy CRC F22DFD7C
Accurately ripped (confidence 2) [01077334] (AR v1)
Copy OK

Track 7

Filename I:\my upload\Don Byas - Complete 1946-1951 European Small Group Master Takes (2001) [FLAC] {DRCD 11214}\CD2\07 - Rifflin' and Jivin'.wav

Pre-gap length 0:00:03.00

Peak level 100.0 %
Extraction speed 1.4 X
Track quality 99.9 %
Test CRC 7AC1F3D5
Copy CRC 7AC1F3D5
Accurately ripped (confidence 2) [C17E8E0D] (AR v1)
Copy OK

Track 8

Filename I:\my upload\Don Byas - Complete 1946-1951 European Small Group Master Takes (2001) [FLAC] {DRCD 11214}\CD2\08 - I Can't Explain.wav

Pre-gap length 0:00:03.00

Peak level 100.0 %
Extraction speed 1.7 X
Track quality 100.0 %
Test CRC 2C89B344
Copy CRC 2C89B344
Accurately ripped (confidence 2) [C2BA539B] (AR v1)
Copy OK

Track 9

Filename I:\my upload\Don Byas - Complete 1946-1951 European Small Group Master Takes (2001) [FLAC] {DRCD 11214}\CD2\09 - Blues For Panassie.wav

Pre-gap length 0:00:03.00

Peak level 100.0 %
Extraction speed 1.8 X
Track quality 100.0 %
Test CRC E6208C6A
Copy CRC E6208C6A
Accurately ripped (confidence 2) [13B93552] (AR v1)
Copy OK

Track 10

Filename I:\my upload\Don Byas - Complete 1946-1951 European Small Group Master Takes (2001) [FLAC] {DRCD 11214}\CD2\10 - Janine.wav

Pre-gap length 0:00:03.00

Peak level 100.0 %
Extraction speed 1.7 X
Track quality 100.0 %
Test CRC AA6F8077
Copy CRC AA6F8077
Accurately ripped (confidence 2) [EB44F375] (AR v1)
Copy OK

Track 11

Filename I:\my upload\Don Byas - Complete 1946-1951 European Small Group Master Takes (2001) [FLAC] {DRCD 11214}\CD2\11 - Byas JUmp.wav

Pre-gap length 0:00:03.00

Peak level 100.0 %
Extraction speed 1.9 X
Track quality 100.0 %
Test CRC AED7553E
Copy CRC AED7553E
Accurately ripped (confidence 2) [7532D4F5] (AR v1)
Copy OK

Track 12

Filename I:\my upload\Don Byas - Complete 1946-1951 European Small Group Master Takes (2001) [FLAC] {DRCD 11214}\CD2\12 - What is This Thing Called Love.wav

Pre-gap length 0:00:03.00

Peak level 100.0 %
Extraction speed 1.6 X
Track quality 99.9 %
Test CRC FE4E668D
Copy CRC FE4E668D
Accurately ripped (confidence 2) [4ADCAFF1] (AR v1)
Copy OK

Track 13

Filename I:\my upload\Don Byas - Complete 1946-1951 European Small Group Master Takes (2001) [FLAC] {DRCD 11214}\CD2\13 - Yesterdays.wav

Pre-gap length 0:00:03.00

Peak level 100.0 %
Extraction speed 2.0 X
Track quality 100.0 %
Test CRC 7BF74C03
Copy CRC 7BF74C03
Accurately ripped (confidence 2) [87AD4192] (AR v1)
Copy OK

Track 14

Filename I:\my upload\Don Byas - Complete 1946-1951 European Small Group Master Takes (2001) [FLAC] {DRCD 11214}\CD2\14 - St. Louis Blues.wav

Pre-gap length 0:00:03.00

Peak level 100.0 %
Extraction speed 2.1 X
Track quality 100.0 %
Test CRC E270E789
Copy CRC E270E789
Accurately ripped (confidence 2) [35B65B74] (AR v1)
Copy OK

Track 15

Filename I:\my upload\Don Byas - Complete 1946-1951 European Small Group Master Takes (2001) [FLAC] {DRCD 11214}\CD2\15 - Lover Man.wav

Pre-gap length 0:00:03.00

Peak level 100.0 %
Extraction speed 2.1 X
Track quality 100.0 %
Test CRC B7D61669
Copy CRC B7D61669
Accurately ripped (confidence 2) [61D8849E] (AR v1)
Copy OK

Track 16

Filename I:\my upload\Don Byas - Complete 1946-1951 European Small Group Master Takes (2001) [FLAC] {DRCD 11214}\CD2\16 - Liza.wav

Pre-gap length 0:00:03.00

Peak level 100.0 %
Extraction speed 2.2 X
Track quality 100.0 %
Test CRC E44C6B51
Copy CRC E44C6B51
Accurately ripped (confidence 2) [0F1106C8] (AR v1)
Copy OK

Track 17

Filename I:\my upload\Don Byas - Complete 1946-1951 European Small Group Master Takes (2001) [FLAC] {DRCD 11214}\CD2\17 - Blues At Noon.wav

Pre-gap length 0:00:03.00

Peak level 100.0 %
Extraction speed 2.2 X
Track quality 100.0 %
Test CRC BC3A1272
Copy CRC BC3A1272
Track not present in AccurateRip database
Copy OK


16 track(s) accurately ripped
1 track(s) not present in the AccurateRip database

Some tracks could not be verified as accurate

No errors occurred

End of status report

==== Log checksum F7B6C074488B1F5B3C73B8AAEFDF9A41A464BE9BBB9321AB7A182CF8738D901D ====

Exact Audio Copy V1.0 beta 2 from 29. April 2011

EAC extraction logfile from 4. December 2011, 19:55

Don Byas / CD3

Used drive : HL-DT-STDVDRAM_GT30N Adapter: 1 ID: 0

Read mode : Secure
Utilize accurate stream : Yes
Defeat audio cache : Yes
Make use of C2 pointers : No

Read offset correction : 103
Overread into Lead-In and Lead-Out : No
Fill up missing offset samples with silence : Yes
Delete leading and trailing silent blocks : No
Null samples used in CRC calculations : Yes
Used interface : Native Win32 interface for Win NT & 2000
Gap handling : Appended to previous track

Used output format : User Defined Encoder
Selected bitrate : 640 kBit/s
Quality : High
Add ID3 tag : No
Command line compressor : C:\Program Files\Exact Audio Copyv1.0b2\Flac\flac.exe
Additional command line options : -8 -V -T "ARTIST=%artist%" -T "TITLE=%title%" -T "ALBUM=%albumtitle%" -T "DATE=%year%" -T "TRACKNUMBER=%tracknr%" -T "TOTALTRACKS=%numtracks%" -T "GENRE=%genre%" -T "ALBUMARTIST=%albumartist%" -T "ALBUM ARTIST=%albumartist%


TOC of the extracted CD

Track | Start | Length | Start sector | End sector
––––––––––––––––––––––––––––-
1 | 0:00.00 | 2:50.45 | 0 | 12794
2 | 2:50.45 | 3:28.65 | 12795 | 28459
3 | 6:19.35 | 3:20.26 | 28460 | 43485
4 | 9:39.61 | 2:59.38 | 43486 | 56948
5 | 12:39.24 | 2:51.15 | 56949 | 69788
6 | 15:30.39 | 2:58.23 | 69789 | 83161
7 | 18:28.62 | 2:36.64 | 83162 | 94925
8 | 21:05.51 | 2:45.73 | 94926 | 107373
9 | 23:51.49 | 2:55.21 | 107374 | 120519
10 | 26:46.70 | 2:58.37 | 120520 | 133906
11 | 29:45.32 | 2:52.60 | 133907 | 146866
12 | 32:38.17 | 2:39.41 | 146867 | 158832
13 | 35:17.58 | 2:58.30 | 158833 | 172212
14 | 38:16.13 | 3:11.27 | 172213 | 186564
15 | 41:27.40 | 3:36.69 | 186565 | 202833
16 | 45:04.34 | 3:15.67 | 202834 | 217525
17 | 48:20.26 | 2:54.07 | 217526 | 230582
18 | 51:14.33 | 2:43.05 | 230583 | 242812
19 | 53:57.38 | 3:05.69 | 242813 | 256756
20 | 57:03.32 | 3:05.67 | 256757 | 270698
21 | 60:09.24 | 3:34.17 | 270699 | 286765


Track 1

Filename I:\my upload\Don Byas - Complete 1946-1951 European Small Group Master Takes (2001) [FLAC] {DRCD 11214}\CD3\01 - Summertime.wav

Pre-gap length 0:00:02.00

Peak level 100.0 %
Extraction speed 1.1 X
Track quality 100.0 %
Test CRC 4C18C6BC
Copy CRC 4C18C6BC
Accurately ripped (confidence 1) [CDE1401B] (AR v1)
Copy OK

Track 2

Filename I:\my upload\Don Byas - Complete 1946-1951 European Small Group Master Takes (2001) [FLAC] {DRCD 11214}\CD3\02 - It's The Talk of the Town.wav

Pre-gap length 0:00:03.00

Peak level 100.0 %
Extraction speed 1.3 X
Track quality 100.0 %
Test CRC FFF14D64
Copy CRC FFF14D64
Accurately ripped (confidence 1) [B406AFD8] (AR v1)
Copy OK

Track 3

Filename I:\my upload\Don Byas - Complete 1946-1951 European Small Group Master Takes (2001) [FLAC] {DRCD 11214}\CD3\03 - Stardust.wav

Pre-gap length 0:00:03.00

Peak level 100.0 %
Extraction speed 1.4 X
Track quality 100.0 %
Test CRC 684D6AA4
Copy CRC 684D6AA4
Accurately ripped (confidence 1) [4E21C398] (AR v1)
Copy OK

Track 4

Filename I:\my upload\Don Byas - Complete 1946-1951 European Small Group Master Takes (2001) [FLAC] {DRCD 11214}\CD3\04 - A Pretty Girl is Like a Melody.wav

Pre-gap length 0:00:03.00

Peak level 100.0 %
Extraction speed 1.4 X
Track quality 100.0 %
Test CRC 23923DAD
Copy CRC 23923DAD
Accurately ripped (confidence 1) [93B31118] (AR v1)
Copy OK

Track 5

Filename I:\my upload\Don Byas - Complete 1946-1951 European Small Group Master Takes (2001) [FLAC] {DRCD 11214}\CD3\05 - Old Man River.wav

Pre-gap length 0:00:03.00

Peak level 100.0 %
Extraction speed 1.5 X
Track quality 100.0 %
Test CRC 25CF6953
Copy CRC 25CF6953
Accurately ripped (confidence 1) [1C18748C] (AR v1)
Copy OK

Track 6

Filename I:\my upload\Don Byas - Complete 1946-1951 European Small Group Master Takes (2001) [FLAC] {DRCD 11214}\CD3\06 - Flamingo.wav

Pre-gap length 0:00:03.00

Peak level 100.0 %
Extraction speed 1.3 X
Track quality 99.9 %
Test CRC 0DF81750
Copy CRC 0DF81750
Accurately ripped (confidence 1) [70ADC0D0] (AR v1)
Copy OK

Track 7

Filename I:\my upload\Don Byas - Complete 1946-1951 European Small Group Master Takes (2001) [FLAC] {DRCD 11214}\CD3\07 - Night and Day.wav

Pre-gap length 0:00:03.00

Peak level 100.0 %
Extraction speed 1.6 X
Track quality 100.0 %
Test CRC 7B2E68AB
Copy CRC 7B2E68AB
Accurately ripped (confidence 1) [385C041B] (AR v1)
Copy OK

Track 8

Filename I:\my upload\Don Byas - Complete 1946-1951 European Small Group Master Takes (2001) [FLAC] {DRCD 11214}\CD3\08 - The Man I Love.wav

Pre-gap length 0:00:03.00

Peak level 100.0 %
Extraction speed 1.4 X
Track quality 99.9 %
Test CRC 7AAB870B
Copy CRC 7AAB870B
Accurately ripped (confidence 1) [81975EFF] (AR v1)
Copy OK

Track 9

Filename I:\my upload\Don Byas - Complete 1946-1951 European Small Group Master Takes (2001) [FLAC] {DRCD 11214}\CD3\09 - Georgia on my Mind.wav

Pre-gap length 0:00:03.00

Peak level 100.0 %
Extraction speed 1.5 X
Track quality 99.9 %
Test CRC 69884DC6
Copy CRC 69884DC6
Accurately ripped (confidence 1) [6508FC24] (AR v1)
Copy OK

Track 10

Filename I:\my upload\Don Byas - Complete 1946-1951 European Small Group Master Takes (2001) [FLAC] {DRCD 11214}\CD3\10 - Easy To Love.wav

Pre-gap length 0:00:03.00

Peak level 100.0 %
Extraction speed 1.8 X
Track quality 100.0 %
Test CRC 707425E0
Copy CRC 707425E0
Accurately ripped (confidence 1) [AACA7E11] (AR v1)
Copy OK

Track 11

Filename I:\my upload\Don Byas - Complete 1946-1951 European Small Group Master Takes (2001) [FLAC] {DRCD 11214}\CD3\11 - Over the Rainbow.wav

Pre-gap length 0:00:03.00

Peak level 100.0 %
Extraction speed 1.9 X
Track quality 100.0 %
Test CRC 9C40081D
Copy CRC 9C40081D
Accurately ripped (confidence 1) [667C5365] (AR v1)
Copy OK

Track 12

Filename I:\my upload\Don Byas - Complete 1946-1951 European Small Group Master Takes (2001) [FLAC] {DRCD 11214}\CD3\12 - Where or When.wav

Pre-gap length 0:00:03.00

Peak level 100.0 %
Extraction speed 1.9 X
Track quality 100.0 %
Test CRC 5D7A8081
Copy CRC 5D7A8081
Accurately ripped (confidence 1) [4E9DA916] (AR v1)
Copy OK

Track 13

Filename I:\my upload\Don Byas - Complete 1946-1951 European Small Group Master Takes (2001) [FLAC] {DRCD 11214}\CD3\13 - Just One of Those Things.wav

Pre-gap length 0:00:03.00

Peak level 100.0 %
Extraction speed 2.0 X
Track quality 100.0 %
Test CRC DC3EA61E
Copy CRC DC3EA61E
Accurately ripped (confidence 1) [EDC11142] (AR v1)
Copy OK

Track 14

Filename I:\my upload\Don Byas - Complete 1946-1951 European Small Group Master Takes (2001) [FLAC] {DRCD 11214}\CD3\14 - Mean to Me.wav

Pre-gap length 0:00:03.00

Peak level 100.0 %
Extraction speed 2.1 X
Track quality 100.0 %
Test CRC 04366C69
Copy CRC 04366C69
Accurately ripped (confidence 1) [808108A2] (AR v1)
Copy OK

Track 15

Filename I:\my upload\Don Byas - Complete 1946-1951 European Small Group Master Takes (2001) [FLAC] {DRCD 11214}\CD3\15 - Live and Love Tonight.wav

Pre-gap length 0:00:03.00

Peak level 100.0 %
Extraction speed 2.2 X
Track quality 100.0 %
Test CRC 6F9D29FC
Copy CRC 6F9D29FC
Accurately ripped (confidence 1) [E6A219D6] (AR v1)
Copy OK

Track 16

Filename I:\my upload\Don Byas - Complete 1946-1951 European Small Group Master Takes (2001) [FLAC] {DRCD 11214}\CD3\16 - I Know That You Know.wav

Pre-gap length 0:00:03.00

Peak level 100.0 %
Extraction speed 1.9 X
Track quality 99.9 %
Test CRC C61D1863
Copy CRC C61D1863
Accurately ripped (confidence 1) [372A202B] (AR v1)
Copy OK

Track 17

Filename I:\my upload\Don Byas - Complete 1946-1951 European Small Group Master Takes (2001) [FLAC] {DRCD 11214}\CD3\17 - Blue Lou.wav

Pre-gap length 0:00:03.00

Peak level 100.0 %
Extraction speed 2.2 X
Track quality 100.0 %
Test CRC CCD17102
Copy CRC CCD17102
Accurately ripped (confidence 1) [A3BD3F9A] (AR v1)
Copy OK

Track 18

Filename I:\my upload\Don Byas - Complete 1946-1951 European Small Group Master Takes (2001) [FLAC] {DRCD 11214}\CD3\18 - You're Lucky to Me.wav

Pre-gap length 0:00:03.00

Peak level 100.0 %
Extraction speed 2.2 X
Track quality 100.0 %
Test CRC A04F23D6
Copy CRC A04F23D6
Accurately ripped (confidence 1) [D57B0751] (AR v1)
Copy OK

Track 19

Filename I:\my upload\Don Byas - Complete 1946-1951 European Small Group Master Takes (2001) [FLAC] {DRCD 11214}\CD3\19 - Tenderly Gross.wav

Pre-gap length 0:00:03.00

Peak level 100.0 %
Extraction speed 2.0 X
Track quality 99.9 %
Test CRC 58C1840E
Copy CRC 58C1840E
Accurately ripped (confidence 1) [2F47DFE0] (AR v1)
Copy OK

Track 20

Filename I:\my upload\Don Byas - Complete 1946-1951 European Small Group Master Takes (2001) [FLAC] {DRCD 11214}\CD3\20 - C'est Vous Cherie.wav

Pre-gap length 0:00:03.00

Peak level 100.0 %
Extraction speed 2.1 X
Track quality 99.9 %
Test CRC 2092418E
Copy CRC 2092418E
Accurately ripped (confidence 1) [6EB9418D] (AR v1)
Copy OK

Track 21

Filename I:\my upload\Don Byas - Complete 1946-1951 European Small Group Master Takes (2001) [FLAC] {DRCD 11214}\CD3\21 - Chloe.wav

Pre-gap length 0:00:03.00

Peak level 100.0 %
Extraction speed 2.5 X
Track quality 100.0 %
Test CRC 89C2B5D7
Copy CRC 89C2B5D7
Cannot be verified as accurate (confidence 1) [CED13A6E], AccurateRip returned [1A669C16] (AR v2)
Copy OK


20 track(s) accurately ripped
1 track(s) could not be verified as accurate

Some tracks could not be verified as accurate

No errors occurred

End of status report

==== Log checksum 8DEB12EF5971D0BF4466EE1E925B0D4FC3E2EF6E762B907FB3CBB98C14A4A4B2 ====


Don Byas - Complete 1946-1951 European Small Group Master Takes (2001) {3CD Set Definitive Records DRCD 11214}


All thanks goes to the original releaser!


===