Subcategories

Don Friedman - Metamorphosis (1966) {2014 Japan Prestige Masters Collection 1000 Series UCCO-90266}

Posted By: ruskaval
Don Friedman - Metamorphosis (1966) {2014 Japan Prestige Masters Collection 1000 Series UCCO-90266}

Don Friedman - Metamorphosis (1966) {2014 Japan Prestige Masters Collection 1000 Series UCCO-90266}
EAC rip (secure mode) | FLAC (tracks)+CUE+LOG -> 223 Mb | MP3 @320 -> 104 Mb
Full Artwork @ 600 dpi (jpg) -> 87 Mb | 5% repair rar
© 1966, 2014 Prestige / Concord Music / Universal Music Japan | UCCO-90266
Jazz / Post Bop / Piano / Guitar

For Friedman's fifth recording, he is definitely exploring the progressive edges of modern mainstream post-bop. He's more sublimated as a voice, with guitarist Attila Zoller taking a prominent role as frontman, while the performances of bassist Richard Davis and drummer Joe Chambers provide perfect foils for Friedman's swashbuckling creative urges. While the pianist utilizes elements stemming from bop and the avant garde, the melodic and listenable ingredients are juxtaposed with challenging ideas, and the leader acts as a true ringleader in the midst of his three brilliant compadres. "Wakin' Up" starts the six tracks in a quirky, mid-swing waltz; Zoller's signature clipped, staccato leads and the innovative Davis' ruminating bass chords identify a sound prevalent throughout.

"Spring Sign" presents a written 16-bar head, then scattered melodic and harmonic shards, and some free improv with instruments countermoving each other. A bop-swing mid-section, bowed long tones as only Davis can conjure, and Zoller rambling on and on roughly signifies this A-B-A composition, which runs 11 and a half minutes. Jimmy Guiffre's churning "Drive" has a design that the writer describes as a difficult piece of music which is embellished, perhaps even expounded upon, by the collective light of these four. The most tunefully attractive "Extension" of Zoller's is again boppish, with guitar and ostinato bass leading the way. It is here that Friedman's gypsy voice comes to the forefront amidst a string of probing, wafting, bright, and beautiful harmonic inventions, with or without guitar, in no time or with meter. "Troubadour's Groovedour" is Zoller's dark 12-tone based musical limerick, with phrases traded equally, swing in 4/4, and leading to a conspiratorial bridge of call and response with guitar and piano only. The finale, Zoller's "Dream Bells," is also a no time tryptych;, angular and Monk-like, it has a contained intensity much like the state of REM. The bowed bass of Davis has spaced-out overtones, and a nifty, multiple-cymbal solo from Chambers is delicate yet direct, in 6/8 or rubato fashion. Certainly Friedman challenges listeners with this music, but he also challenges his own abilities and concepts. For the time period, it is one of the most vital, original, progressive statements, and one that, after all these years, retains a timeless freshness that bears not only a second listening, but consideration as a creative music hallmark.
Don Friedman - Metamorphosis (1966) {2014 Japan Prestige Masters Collection 1000 Series UCCO-90266}


Musicians

Don Friedman - piano
Attila Zoller - guitar
Richard Davis - bass
Joe Chambers - drums

Track Listing

01 - Wakin' Up
02 - Spring Sign
03 - Drive
04 - Extension
05 - Troubadours Groovedour
06 - Dream Bells

Exact Audio Copy V1.3 from 2. September 2016

EAC extraction logfile from 19. March 2018, 22:00

Don Friedman / Metamorphosis

Used drive : ATAPI iHAS122 F Adapter: 1 ID: 2

Read mode : Secure
Utilize accurate stream : Yes
Defeat audio cache : Yes
Make use of C2 pointers : No

Read offset correction : 6
Overread into Lead-In and Lead-Out : No
Fill up missing offset samples with silence : Yes
Delete leading and trailing silent blocks : No
Null samples used in CRC calculations : Yes
Used interface : Native Win32 interface for Win NT & 2000
Gap handling : Appended to previous track

Used output format : User Defined Encoder
Selected bitrate : 1024 kBit/s
Quality : High
Add ID3 tag : No
Command line compressor : C:\Program Files (x86)\Exact Audio Copy_v1.3\Flac\flac.exe
Additional command line options : -8 -V -T "ARTIST=%artist%" -T "TITLE=%title%" -T "ALBUM=%albumtitle%" -T "DATE=%year%" -T "TRACKNUMBER=%tracknr%" -T "TOTALTRACKS=%numtracks%" -T "GENRE=%genre%" -T "ALBUMARTIST=%albumartist%" -T "ALBUM ARTIST=%albumartist%" -T "COMMENT=EAC Secure Mode, Test & Copy, AccurateRip, FLAC -8" %source%


TOC of the extracted CD

Track | Start | Length | Start sector | End sector
––––––––––––––––––––––––––––-
1 | 0:00.00 | 4:59.62 | 0 | 22486
2 | 4:59.62 | 11:42.63 | 22487 | 75199
3 | 16:42.50 | 4:52.32 | 75200 | 97131
4 | 21:35.07 | 9:21.70 | 97132 | 139276
5 | 30:57.02 | 6:47.28 | 139277 | 169829
6 | 37:44.30 | 7:30.70 | 169830 | 203649


Track 1

Filename D:\_EAC\Don Friedman - Metamorphosis (1966) [FLAC] {Prestige Japan UCCO-90266 rel 2014}\01 - Wakin' Up.wav

Pre-gap length 0:00:02.00

Peak level 92.5 %
Extraction speed 4.9 X
Track quality 100.0 %
Test CRC 6D496429
Copy CRC 6D496429
Accurately ripped (confidence 2) [AF1C5F3A] (AR v2)
Copy OK

Track 2

Filename D:\_EAC\Don Friedman - Metamorphosis (1966) [FLAC] {Prestige Japan UCCO-90266 rel 2014}\02 - Spring Sign.wav

Peak level 99.9 %
Extraction speed 5.7 X
Track quality 99.9 %
Test CRC FE287FC4
Copy CRC FE287FC4
Accurately ripped (confidence 2) [F5D700A9] (AR v2)
Copy OK

Track 3

Filename D:\_EAC\Don Friedman - Metamorphosis (1966) [FLAC] {Prestige Japan UCCO-90266 rel 2014}\03 - Drive.wav

Peak level 99.9 %
Extraction speed 6.6 X
Track quality 100.0 %
Test CRC 186559F2
Copy CRC 186559F2
Accurately ripped (confidence 2) [949E249E] (AR v2)
Copy OK

Track 4

Filename D:\_EAC\Don Friedman - Metamorphosis (1966) [FLAC] {Prestige Japan UCCO-90266 rel 2014}\04 - Extension.wav

Peak level 100.0 %
Extraction speed 7.5 X
Track quality 100.0 %
Test CRC 77B47936
Copy CRC 77B47936
Accurately ripped (confidence 2) [A539522B] (AR v2)
Copy OK

Track 5

Filename D:\_EAC\Don Friedman - Metamorphosis (1966) [FLAC] {Prestige Japan UCCO-90266 rel 2014}\05 - Troubadours Groovedour.wav

Peak level 89.7 %
Extraction speed 7.1 X
Track quality 99.9 %
Test CRC 4D453E8D
Copy CRC 4D453E8D
Accurately ripped (confidence 2) [83968BF6] (AR v2)
Copy OK

Track 6

Filename D:\_EAC\Don Friedman - Metamorphosis (1966) [FLAC] {Prestige Japan UCCO-90266 rel 2014}\06 - Dream Bells.wav

Peak level 90.0 %
Extraction speed 8.5 X
Track quality 100.0 %
Test CRC 3BE61F70
Copy CRC 3BE61F70
Accurately ripped (confidence 2) [E47EE587] (AR v2)
Copy OK


All tracks accurately ripped

No errors occurred

End of status report

–– CUETools DB Plugin V2.1.6

[CTDB TOCID: ARdEIxcp9cz95YKIxG3UKj3xnmw-] found
Submit result: ARdEIxcp9cz95YKIxG3UKj3xnmw- has been confirmed
Track | CTDB Status
1 | (9/9) Accurately ripped
2 | (7/9) Accurately ripped, or (2/9) differs in 110 samples @08:41:68-08:41:74
3 | (9/9) Accurately ripped
4 | (9/9) Accurately ripped
5 | (9/9) Accurately ripped
6 | (7/9) Accurately ripped, or (2/9) differs in 884 samples @00:02:64-00:02:73,01:55:41-01:55:58,03:56:34-03:56:35


==== Log checksum 8F14444F22E2B032FF5E72A31506738F950CF87C32B16A3BAED366277B825641 ====


Don Friedman - Metamorphosis (1966) {2014 Japan Prestige Masters Collection 1000 Series UCCO-90266}

Don Friedman - Metamorphosis (1966) {2014 Japan Prestige Masters Collection 1000 Series UCCO-90266}


see more Japan Prestige Masters Collection 1000 Series…


===