Subcategories

Donald Byrd - Caricatures (1976) (Remastered 2003)

Posted By: Bezz
Donald Byrd - Caricatures (1976) (Remastered 2003)

Donald Byrd - Caricatures (1976) (Remastered 2003)
Jazz | EAC rip | FLAC + CUE + LOG | Full Scans | 260 Mb
Label ~ Blue Note Records

One of his last efforts with the Mizell production team was definitely not his most critically acclaimed, but Caricatures continued Byrd's commercial winning streak that started years previous with 1969's Kofi and such '70s Blue Note classics as Places and Spaces, Black Byrd, and Street Lady. His last release for the label was no exception to the formula set forth from the previously mentioned albums. One of Caricatures strongest features is the level of musicianship from start to finish. Byrd recruited some of the top '70s soul-jazz musicians, such as Gary Bartz, Alphonse Mouzon, David T Walker, and future '80s R&B hitmaker Patrice Rushen, to help complement the musicianship laid down by Byrd and the Mizell brothers. The atmosphere is light and soulful, with musicians bouncing off one another for ideas that shift closer towards R&B while maintaining a sense of jazz ideals. While there is no truly memorable anthemic release or hit to speak of, Caricatures serves its primary purpose of being a jazz fusion record to make both people dance and purists wince at the notion that jazz can fuse with other elements and achieve success. ~ AllMusic

Tracks List

1. Donald Byrd - Dance Band (6:13)
2. Donald Byrd - Wild Life (5:59)
3. Donald Byrd - Caricatures (5:10)
4. Donald Byrd - Science Funktion (4:50)
5. Donald Byrd - Dancing In The Street (4:43)
6. Donald Byrd - Return Of The King (4:51)
7. Donald Byrd - Onward 'Til Morning (3:47)
8. Donald Byrd - Tell Me (4:20)

Exact Audio Copy V0.99 prebeta 5 from 4. May 2009
EAC extraction logfile from 8. March 2010, 19:22
Donald Byrd / Caricatures
Used drive : ASUS CB-5216A Adapter: 0 ID: 1
Read mode : Secure
Utilize accurate stream : Yes
Defeat audio cache : Yes
Make use of C2 pointers : No
Read offset correction : 6
Overread into Lead-In and Lead-Out : No
Fill up missing offset samples with silence : Yes
Delete leading and trailing silent blocks : No
Null samples used in CRC calculations : Yes
Used interface : Native Win32 interface for Win NT & 2000
Gap handling : Appended to previous track
Used output format : User Defined Encoder
Selected bitrate : 320 kBit/s
Quality : High
Add ID3 tag : No
Command line compressor : C:\Program Files\FLAC\flac.exe
Additional command line options : -5 -V -T "ARTIST=%a" -T "TITLE=%t" -T "ALBUM=%g" -T "DATE=%y" -T "TRACKNUMBER=%n" -T "GENRE=%m" -T "COMMENT=Ripped By andygrakoff aka yetiisyou" %s
TOC of the extracted CD
Track | Start | Length | Start sector | End sector
––––––––––––––––––––––––––––-
1 | 0:00.00 | 6:13.72 | 0 | 28046
2 | 6:13.72 | 5:59.55 | 28047 | 55026
3 | 12:13.52 | 5:10.48 | 55027 | 78324
4 | 17:24.25 | 4:50.67 | 78325 | 100141
5 | 22:15.17 | 4:43.43 | 100142 | 121409
6 | 26:58.60 | 4:51.02 | 121410 | 143236
7 | 31:49.62 | 3:47.48 | 143237 | 160309
8 | 35:37.35 | 4:20.60 | 160310 | 179869
Track 1
Filename E:\!Rips\FUNK @ SOUL\Donald Byrd - Caricatures (7243 5 80732 2 5) 1976\01 – Dance Band.wav
Pre-gap length 0:00:02.00
Peak level 97.7 %
Track quality 100.0 %
Test CRC 07DA48A7
Copy CRC 07DA48A7
Cannot be verified as accurate (confidence 4) [15B8D30F], AccurateRip returned [25F08DEC]
Copy OK
Track 2
Filename E:\!Rips\FUNK @ SOUL\Donald Byrd - Caricatures (7243 5 80732 2 5) 1976\02 – Wild Life.wav
Pre-gap length 0:00:02.29
Peak level 97.7 %
Track quality 100.0 %
Test CRC 36FC5AA8
Copy CRC 36FC5AA8
Cannot be verified as accurate (confidence 4) [B35E1B19], AccurateRip returned [40D2C03F]
Copy OK
Track 3
Filename E:\!Rips\FUNK @ SOUL\Donald Byrd - Caricatures (7243 5 80732 2 5) 1976\03 – Caricatures.wav
Pre-gap length 0:00:00.73
Peak level 97.7 %
Track quality 100.0 %
Test CRC A58E244E
Copy CRC A58E244E
Cannot be verified as accurate (confidence 4) [0960D645], AccurateRip returned [64D38BD3]
Copy OK
Track 4
Filename E:\!Rips\FUNK @ SOUL\Donald Byrd - Caricatures (7243 5 80732 2 5) 1976\04 – Science Funktion.wav
Pre-gap length 0:00:02.26
Peak level 97.7 %
Track quality 99.9 %
Test CRC EE858FE7
Copy CRC EE858FE7
Cannot be verified as accurate (confidence 4) [748B7055], AccurateRip returned [69897AC1]
Copy OK
Track 5
Filename E:\!Rips\FUNK @ SOUL\Donald Byrd - Caricatures (7243 5 80732 2 5) 1976\05 – Dancing In The Street.wav
Pre-gap length 0:00:00.96
Peak level 97.7 %
Track quality 99.9 %
Test CRC 10EDB9C5
Copy CRC 10EDB9C5
Cannot be verified as accurate (confidence 4) [5AF574EE], AccurateRip returned [CE24B402]
Copy OK
Track 6
Filename E:\!Rips\FUNK @ SOUL\Donald Byrd - Caricatures (7243 5 80732 2 5) 1976\06 – Return Of The King.wav
Pre-gap length 0:00:01.44
Peak level 97.7 %
Track quality 100.0 %
Test CRC 08B2ABEF
Copy CRC 08B2ABEF
Cannot be verified as accurate (confidence 4) [232156C3], AccurateRip returned [1B7F1F91]
Copy OK
Track 7
Filename E:\!Rips\FUNK @ SOUL\Donald Byrd - Caricatures (7243 5 80732 2 5) 1976\07 – Onward 'Til Morning.wav
Pre-gap length 0:00:01.56
Peak level 97.7 %
Track quality 100.0 %
Test CRC B411FBE7
Copy CRC B411FBE7
Cannot be verified as accurate (confidence 4) [525C387E], AccurateRip returned [6E831215]
Copy OK
Track 8
Filename E:\!Rips\FUNK @ SOUL\Donald Byrd - Caricatures (7243 5 80732 2 5) 1976\08 – Tell Me.wav
Pre-gap length 0:00:02.46
Peak level 97.7 %
Track quality 100.0 %
Test CRC 617E5D06
Copy CRC 617E5D06
Cannot be verified as accurate (confidence 4) [91FD0CC0], AccurateRip returned [7811F6D5]
Copy OK
No tracks could be verified as accurate
You may have a different pressing from the one(s) in the database
No errors occurred
End of status report


Donald Byrd - Caricatures (1976) (Remastered 2003)


Donald Byrd - Caricatures (1976) (Remastered 2003)


FILESERVE links

Part 1
Part 2


HOTFILE links

Part 1
Part 2


BITSHARE links

Part 1
Part 2

Welcome to my blog for more wonderful music


PLEASE DO NOT PROVIDE MIRROR LINKS!