Subcategories

Donald Byrd - The Best Of Donald Byrd (1992) {PROPER}

Posted By: Bezz
Donald Byrd - The Best Of Donald Byrd (1992) {PROPER}

Donald Byrd - The Best Of Donald Byrd (1992) {PROPER}
EAC rip | FLAC + CUE + LOG | Scans | 480 Mb (Incl. Recovery)
Genre ~ Crossover Jazz, Jazz-Funk, Trumpet Jazz | Label ~ EMI Records

Given the long period of time that Donald Byrd recorded for Blue Note (from the 1950s through the mid-'70s), it seems more than a little disingenuous to refer to the relatively brief period he spent with the Mizell Brothers as his producers, arrangers, and composers in the '70s as his best work. It is true that it was his most commercially viable period, and that many of the cuts he recorded with them – not to mention albums like Black Byrd, Places and Spaces, Street Lady, and Stepping into Tomorrow – have become legendary to a new generation of jazz fans culled from DJs and club-goers, and were instrumental in melding jazz, funk, disco and soul together in a pioneering brew. In the latter sense, this is a fine set that pulls together many of the best cuts from the Mizell collaborations on one disc, including "Street Lady," "Lansana's Princess," "Changes (Makes You Wanna Hustle)," and Black Byrd's title track, to mention a few. The price tag is cheap, so it's a terrific way to check out what was happening in this fertile period for Byrd when jazz purists hated him – and why he was so influential in coming years. ~ AllMusic


Tracklist

1. Change (Makes You Want To Hustle)
2. You And Music
3. Black Byrd 7:20
4. Think Twice
5. Onward 'Til Morning
6. Lansana's Priestess
7. Street Lady
8. Flight-Time
9. Places And Spaces
10. Wind Parade 6:09
11. (Fallin' Like) Dominoes (Live)
12. Stepping Into Tomorrow



Exact Audio Copy V0.99 prebeta 4 from 23. January 2008

EAC extraction logfile from 19. July 2009, 14:31

Donald Byrd / The Best of Donald Byrd

Used drive : TSSTcorpCDDVDW SH-S203D Adapter: 4 ID: 0

Read mode : Secure
Utilize accurate stream : Yes
Defeat audio cache : Yes
Make use of C2 pointers : No

Read offset correction : 6
Overread into Lead-In and Lead-Out : No
Fill up missing offset samples with silence : Yes
Delete leading and trailing silent blocks : No
Null samples used in CRC calculations : Yes
Used interface : Native Win32 interface for Win NT & 2000
Gap handling : Appended to previous track

Used output format : User Defined Encoder
Selected bitrate : 768 kBit/s
Quality : High
Add ID3 tag : No
Command line compressor : C:\Program Files\Exact Audio Copy\FLAC\FLAC.EXE
Additional command line options : -V -8 -T "artist=%a" -T "title=%t" -T "album=%g" -T "date=%y" -T "tracknumber=%n" -T "genre=%m" %s


TOC of the extracted CD

Track | Start | Length | Start sector | End sector
––––––––––––––––––––––––––––-
1 | 0:00.33 | 5:09.50 | 33 | 23257
2 | 5:10.08 | 5:21.60 | 23258 | 47392
3 | 10:31.68 | 7:20.42 | 47393 | 80434
4 | 17:52.35 | 6:11.73 | 80435 | 108332
5 | 24:04.33 | 3:45.65 | 108333 | 125272
6 | 27:50.23 | 7:42.22 | 125273 | 159944
7 | 35:32.45 | 5:40.25 | 159945 | 185469
8 | 41:12.70 | 8:29.25 | 185470 | 223669
9 | 49:42.20 | 6:20.05 | 223670 | 252174
10 | 56:02.25 | 6:09.18 | 252175 | 279867
11 | 62:11.43 | 5:30.32 | 279868 | 304649
12 | 67:42.00 | 5:11.45 | 304650 | 328019


Track 1

Filename F:\Music\Music Rips\Donald Byrd - The Best of Donald Byrd\01 - Change (Makes You Wanna Hustle).wav

Pre-gap length 0:00:02.44

Peak level 94.1 %
Track quality 100.0 %
Test CRC 2079286D
Copy CRC 2079286D
Cannot be verified as accurate (confidence 3) [93ECC66E], AccurateRip returned [A6738377]
Copy OK

Track 2

Filename F:\Music\Music Rips\Donald Byrd - The Best of Donald Byrd\02 - You and Music.wav

Pre-gap length 0:00:00.73

Peak level 92.1 %
Track quality 100.0 %
Test CRC 0FB6ED8B
Copy CRC 0FB6ED8B
Cannot be verified as accurate (confidence 3) [486577AF], AccurateRip returned [AD91F1C5]
Copy OK

Track 3

Filename F:\Music\Music Rips\Donald Byrd - The Best of Donald Byrd\03 - Blackbyrd.wav

Pre-gap length 0:00:01.86

Peak level 87.2 %
Track quality 100.0 %
Test CRC 38DF1AA7
Copy CRC 38DF1AA7
Cannot be verified as accurate (confidence 3) [5A8EAAFF], AccurateRip returned [81B39A58]
Copy OK

Track 4

Filename F:\Music\Music Rips\Donald Byrd - The Best of Donald Byrd\04 - Think Twice.wav

Pre-gap length 0:00:01.22

Peak level 90.7 %
Track quality 100.0 %
Test CRC 7424F844
Copy CRC 7424F844
Cannot be verified as accurate (confidence 3) [F9C51985], AccurateRip returned [35CBB1F0]
Copy OK

Track 5

Filename F:\Music\Music Rips\Donald Byrd - The Best of Donald Byrd\05 - Onward 'til Morning.wav

Pre-gap length 0:00:02.04

Peak level 89.0 %
Track quality 100.0 %
Test CRC 633925A9
Copy CRC 633925A9
Cannot be verified as accurate (confidence 3) [DB5E0AE9], AccurateRip returned [945B4560]
Copy OK

Track 6

Filename F:\Music\Music Rips\Donald Byrd - The Best of Donald Byrd\06 - Lanasana's Priestess.wav

Pre-gap length 0:00:01.46

Peak level 87.9 %
Track quality 100.0 %
Test CRC B996F927
Copy CRC B996F927
Cannot be verified as accurate (confidence 3) [0C8F405B], AccurateRip returned [BF1A8BF7]
Copy OK

Track 7

Filename F:\Music\Music Rips\Donald Byrd - The Best of Donald Byrd\07 - Street Lady.wav

Pre-gap length 0:00:01.02

Peak level 86.6 %
Track quality 100.0 %
Test CRC 29BA7F8A
Copy CRC 29BA7F8A
Cannot be verified as accurate (confidence 3) [331A1B8A], AccurateRip returned [96F96CB8]
Copy OK

Track 8

Filename F:\Music\Music Rips\Donald Byrd - The Best of Donald Byrd\08 - Flight Time.wav

Pre-gap length 0:00:01.60

Peak level 87.4 %
Track quality 100.0 %
Test CRC FFC3E926
Copy CRC FFC3E926
Cannot be verified as accurate (confidence 3) [6893353D], AccurateRip returned [BFE96218]
Copy OK

Track 9

Filename F:\Music\Music Rips\Donald Byrd - The Best of Donald Byrd\09 - Places and Spaces.wav

Pre-gap length 0:00:01.80

Peak level 89.1 %
Track quality 100.0 %
Test CRC 062B32EB
Copy CRC 062B32EB
Cannot be verified as accurate (confidence 3) [84DA93C2], AccurateRip returned [8082D63B]
Copy OK

Track 10

Filename F:\Music\Music Rips\Donald Byrd - The Best of Donald Byrd\10 - Wind Parade.wav

Pre-gap length 0:00:02.13

Peak level 89.7 %
Track quality 99.9 %
Test CRC 776085F3
Copy CRC 776085F3
Cannot be verified as accurate (confidence 3) [9E840E5A], AccurateRip returned [59CD8592]
Copy OK

Track 11

Filename F:\Music\Music Rips\Donald Byrd - The Best of Donald Byrd\11 - (Falling Like) Dominoes (Live).wav

Pre-gap length 0:00:01.73

Peak level 90.6 %
Track quality 100.0 %
Test CRC 6FF5C766
Copy CRC 6FF5C766
Cannot be verified as accurate (confidence 3) [0742977C], AccurateRip returned [94FA1DBB]
Copy OK

Track 12

Filename F:\Music\Music Rips\Donald Byrd - The Best of Donald Byrd\12 - Steppin' into Tomorrow.wav

Pre-gap length 0:00:01.22

Peak level 90.9 %
Track quality 100.0 %
Test CRC 2CE0A28C
Copy CRC 2CE0A28C
Cannot be verified as accurate (confidence 3) [C01B5E5E], AccurateRip returned [3D2FEB53]
Copy OK


No tracks could be verified as accurate
You may have a different pressing from the one(s) in the database

No errors occurred

End of status report



Donald Byrd - The Best Of Donald Byrd (1992) {PROPER}



Special thanks to the original uploader!