Subcategories

Donald Byrd & Pepper Adams - The Complete Blue Note Studio Sessions (2000) {4CD Box Set Mosaic MD4-194 rec 1959-1962}

Posted By: ruskaval
Donald Byrd & Pepper Adams - The Complete Blue Note Studio Sessions (2000) {4CD Box Set Mosaic MD4-194 rec 1959-1962}

Donald Byrd & Pepper Adams - The Complete Blue Note Studio Sessions (2000) {4CD Box Set Mosaic MD4-194 rec 1959-1962}
EAC rip (secure mode) | FLAC (tracks0+CUE+LOG -> 1.74 Gb | MP3 @320 -> 597 Mb
Full Artwork @ 300 dpi (jpg) -> 93 Mb | 5% repair rar
© 1959-62, 2000 Mosaic Records / Blue Note / EMI-Capitol | MD4-194
Jazz / Hard Bop / Trumpet / Saxophone

Centered around the Byrd/Adams Blue Note dates Byrd in Hand, Chant, Royal Flush, The Cat Walk, and Off to the Races, Mosaic's Complete Blue Note Donald Byrd/Pepper Adams Studio Sessions finds the Detroit natives at the top of their game during 1959-1962. Writing and performing some of the most original and tight hard bop around, Byrd and Adams led a variety of combos that featured the likes of Herbie Hancock (his first session), Wynton Kelly, Duke Pearson (who also contributed material), Charlie Rouse, Sam Jones, and Billy Higgins.

Donald Byrd & Pepper Adams - The Complete Blue Note Studio Sessions (2000) {4CD Box Set Mosaic MD4-194 rec 1959-1962}


From distinct covers ("Lover Come Back to Me") to seamlessly complex originals ("Bronze Dance"), Byrd's pure-toned trumpet and Adams' angular baritone unexpectedly make a perfect match. And beyond a wealth of sides that prove the point, the collection also features – in typically thorough and classy Mosaic fashion – some stunning session photos by Blue Note lensman Francis Wolff and an extensive essay by Bob Blumenthal. A hard bop experience of the highest order.
Donald Byrd & Pepper Adams - The Complete Blue Note Studio Sessions (2000) {4CD Box Set Mosaic MD4-194 rec 1959-1962}


ALL ABOUT JAZZ INFO
JAZZ TIMES INFO


Personnel:
Donald Byrd - trumpet
Pepper Adams - baritone saxophone
Jackie McLean, Sonny Red - alto saxophone
Charlie Rouse - tenor saxophone
Wynton Kelly, Herbie Hancock, Walter Davis, Duke Pearson, Chick Corea - piano
Sam Jones, Doug Watkins, Laymon Jackson, Butch Warren, Miroslav Vitous - bass
Art Taylor, Teddy Robinson, Philly Joe Jones, Billy Higgins, Mickey Roker - drums

tracklist:
CD 1:
01 - Lover Come Back To Me
02 - When Your Love Has Gone
03 - Sudwest Funk
04 - Paul's Pal
05 - Off To The Races
06 - Down Tempo
07 - Withchcraft
08 - Here Am I
09 - Devil Whip

CD 2:
01 - Bronze Dance
02 - Clarion Calls
03 - The Injuns
04 - Samba Yantra
05 - I Will Wait For You
06 - Blues Medium Rare
07 - The Creeper
08 - Chico San
09 - Early Sunday Morning
10 - Blues Well Done

CD 3:
01 - I'm An Old Cowhand
02 - You're Next
03 - Chant
04 - That's All
05 - Great God
06 - Sophisticated Lady
07 - Say You're Mine
08 - Duke's Mixture
09 - Each Time I Think Of You

CD 4:
01 - The Cat Walk
02 - Cute
03 - Hello Bright Sunflower
04 - Hush
05 - I'm A Fool To Want You
06 - Jorgie's
07 - Shangri-La
08 - 6 M's
09 - Requiem

EAC extraction logfile from 25. November 2005, 16:26 for CD
Donad Byrd & Pepper Adams / The Complete Blue Note Donald Byrd & Pepper Adams Studio Sessions (Disc 1 of 4)

Used drive : PLEXTOR CD-R PX-W4824A Adapter: 1 ID: 0
Read mode : Secure with NO C2, accurate stream, disable cache
Read offset correction : 98
Overread into Lead-In and Lead-Out : Yes

Used output format : D:\Programme\FLAC\flac.exe (User Defined Encoder)
320 kBit/s
Additional command line options : -8 -V -T "artist=%a" -T "title=%t" -T "album=%g" -T "date=%y" -T "tracknumber=%n" -T "genre=%m" -T "comment=Mosaic MD4-194" %s

Other options :
Fill up missing offset samples with silence : Yes
Delete leading and trailing silent blocks : No
Native Win32 interface for Win NT & 2000


Track 1
Filename E:\Upload Geplant\Donald Byrd & Pepper Adams - The Complete Blue Note Studio Sessions (2000) [FLAC] (Mosaic 4CD))\Disc 1 of 4\01 - Lover Come Back To Me.wav

Pre-gap length 0:00:02.00

Peak level 98.8 %
Track quality 100.0 %
Test CRC C010835F
Copy CRC C010835F
Copy OK

Track 2
Filename E:\Upload Geplant\Donald Byrd & Pepper Adams - The Complete Blue Note Studio Sessions (2000) [FLAC] (Mosaic 4CD))\Disc 1 of 4\02 - When Your Love Has Gone.wav

Pre-gap length 0:00:01.30

Peak level 98.8 %
Track quality 99.9 %
Test CRC 11A5E650
Copy CRC 11A5E650
Copy OK

Track 3
Filename E:\Upload Geplant\Donald Byrd & Pepper Adams - The Complete Blue Note Studio Sessions (2000) [FLAC] (Mosaic 4CD))\Disc 1 of 4\03 - Sudwest Funk.wav

Pre-gap length 0:00:01.82

Peak level 98.8 %
Track quality 100.0 %
Test CRC D5028112
Copy CRC D5028112
Copy OK

Track 4
Filename E:\Upload Geplant\Donald Byrd & Pepper Adams - The Complete Blue Note Studio Sessions (2000) [FLAC] (Mosaic 4CD))\Disc 1 of 4\04 - Paul's Pal.wav

Pre-gap length 0:00:01.62

Peak level 98.8 %
Track quality 100.0 %
Test CRC 1080B676
Copy CRC 1080B676
Copy OK

Track 5
Filename E:\Upload Geplant\Donald Byrd & Pepper Adams - The Complete Blue Note Studio Sessions (2000) [FLAC] (Mosaic 4CD))\Disc 1 of 4\05 - Off To The Races.wav

Pre-gap length 0:00:02.10

Peak level 98.8 %
Track quality 100.0 %
Test CRC 7AACA230
Copy CRC 7AACA230
Copy OK

Track 6
Filename E:\Upload Geplant\Donald Byrd & Pepper Adams - The Complete Blue Note Studio Sessions (2000) [FLAC] (Mosaic 4CD))\Disc 1 of 4\06 - Down Tempo.wav

Pre-gap length 0:00:01.44

Peak level 98.8 %
Track quality 100.0 %
Test CRC 2A868C00
Copy CRC 2A868C00
Copy OK

Track 7
Filename E:\Upload Geplant\Donald Byrd & Pepper Adams - The Complete Blue Note Studio Sessions (2000) [FLAC] (Mosaic 4CD))\Disc 1 of 4\07 - Withchcraft.wav

Pre-gap length 0:00:02.06

Peak level 98.8 %
Track quality 99.9 %
Test CRC 79FB1034
Copy CRC 79FB1034
Copy OK

Track 8
Filename E:\Upload Geplant\Donald Byrd & Pepper Adams - The Complete Blue Note Studio Sessions (2000) [FLAC] (Mosaic 4CD))\Disc 1 of 4\08 - Here Am I.wav

Pre-gap length 0:00:02.42

Peak level 98.8 %
Track quality 100.0 %
Test CRC 61D6B6B1
Copy CRC 61D6B6B1
Copy OK

Track 9
Filename E:\Upload Geplant\Donald Byrd & Pepper Adams - The Complete Blue Note Studio Sessions (2000) [FLAC] (Mosaic 4CD))\Disc 1 of 4\09 - Devil Whip.wav

Pre-gap length 0:00:01.49

Peak level 98.8 %
Track quality 100.0 %
Test CRC 2814F235
Copy CRC 2814F235
Copy OK

No errors occured


End of status report

EAC extraction logfile from 25. November 2005, 15:46 for CD
Donald Byrd & Pepper Adams / The Complete Blue Note Donald Byrd & Pepper Adams Studio Sessions (Disc 2 of 4)

Used drive : PLEXTOR CD-R PX-W4824A Adapter: 1 ID: 0
Read mode : Secure with NO C2, accurate stream, disable cache
Read offset correction : 98
Overread into Lead-In and Lead-Out : Yes

Used output format : D:\Programme\FLAC\flac.exe (User Defined Encoder)
320 kBit/s
Additional command line options : -8 -V -T "artist=%a" -T "title=%t" -T "album=%g" -T "date=%y" -T "tracknumber=%n" -T "genre=%m" -T "comment=Mosaic MD4-194" %s

Other options :
Fill up missing offset samples with silence : Yes
Delete leading and trailing silent blocks : No
Native Win32 interface for Win NT & 2000


Track 1
Filename E:\Upload Geplant\Donald Byrd & Pepper Adams - The Complete Blue Note Studio Sessions (2000) [FLAC] (Mosaic 4CD))\Disc 2 of 4\01 - Bronze Dance.wav

Pre-gap length 0:00:02.00

Peak level 98.8 %
Track quality 100.0 %
Test CRC 8F10B0B3
Copy CRC 8F10B0B3
Copy OK

Track 2
Filename E:\Upload Geplant\Donald Byrd & Pepper Adams - The Complete Blue Note Studio Sessions (2000) [FLAC] (Mosaic 4CD))\Disc 2 of 4\02 - Clarion Calls.wav

Pre-gap length 0:00:01.77

Peak level 98.8 %
Track quality 100.0 %
Test CRC 2D5B9FAC
Copy CRC 2D5B9FAC
Copy OK

Track 3
Filename E:\Upload Geplant\Donald Byrd & Pepper Adams - The Complete Blue Note Studio Sessions (2000) [FLAC] (Mosaic 4CD))\Disc 2 of 4\03 - The Injuns.wav

Pre-gap length 0:00:01.24

Peak level 98.8 %
Track quality 100.0 %
Test CRC 31697E2F
Copy CRC 31697E2F
Copy OK

Track 4
Filename E:\Upload Geplant\Donald Byrd & Pepper Adams - The Complete Blue Note Studio Sessions (2000) [FLAC] (Mosaic 4CD))\Disc 2 of 4\04 - Samba Yantra.wav

Pre-gap length 0:00:00.93

Peak level 96.6 %
Track quality 100.0 %
Test CRC 73042181
Copy CRC 73042181
Copy OK

Track 5
Filename E:\Upload Geplant\Donald Byrd & Pepper Adams - The Complete Blue Note Studio Sessions (2000) [FLAC] (Mosaic 4CD))\Disc 2 of 4\05 - I Will Wait For You.wav

Pre-gap length 0:00:02.04

Peak level 98.8 %
Track quality 100.0 %
Test CRC 89F97D5A
Copy CRC 89F97D5A
Copy OK

Track 6
Filename E:\Upload Geplant\Donald Byrd & Pepper Adams - The Complete Blue Note Studio Sessions (2000) [FLAC] (Mosaic 4CD))\Disc 2 of 4\06 - Blues Medium Rare.wav

Pre-gap length 0:00:02.53

Peak level 98.8 %
Track quality 100.0 %
Test CRC AD383420
Copy CRC AD383420
Copy OK

Track 7
Filename E:\Upload Geplant\Donald Byrd & Pepper Adams - The Complete Blue Note Studio Sessions (2000) [FLAC] (Mosaic 4CD))\Disc 2 of 4\07 - The Creeper.wav

Pre-gap length 0:00:01.93

Peak level 98.8 %
Track quality 100.0 %
Test CRC 59C20BAE
Copy CRC 59C20BAE
Copy OK

Track 8
Filename E:\Upload Geplant\Donald Byrd & Pepper Adams - The Complete Blue Note Studio Sessions (2000) [FLAC] (Mosaic 4CD))\Disc 2 of 4\08 - Chico San.wav

Pre-gap length 0:00:01.84

Peak level 98.8 %
Track quality 100.0 %
Test CRC 64521836
Copy CRC 64521836
Copy OK

Track 9
Filename E:\Upload Geplant\Donald Byrd & Pepper Adams - The Complete Blue Note Studio Sessions (2000) [FLAC] (Mosaic 4CD))\Disc 2 of 4\09 - Early Sunday Morning.wav

Pre-gap length 0:00:02.06

Peak level 98.8 %
Track quality 100.0 %
Test CRC 28C24D5B
Copy CRC 28C24D5B
Copy OK

Track 10
Filename E:\Upload Geplant\Donald Byrd & Pepper Adams - The Complete Blue Note Studio Sessions (2000) [FLAC] (Mosaic 4CD))\Disc 2 of 4\10 - Blues Well Done.wav

Pre-gap length 0:00:01.20

Peak level 98.8 %
Track quality 100.0 %
Test CRC A515F1DD
Copy CRC A515F1DD
Copy OK

No errors occured


End of status report

EAC extraction logfile from 25. November 2005, 14:41 for CD
Donald Byrd & Pepper Adams / The Complete Blue Note Donald Byrd & Pepper Adams Studio Sessions (Disc 3 of 4)

Used drive : PLEXTOR CD-R PX-W4824A Adapter: 1 ID: 0
Read mode : Secure with NO C2, accurate stream, disable cache
Read offset correction : 98
Overread into Lead-In and Lead-Out : Yes

Used output format : D:\Programme\FLAC\flac.exe (User Defined Encoder)
320 kBit/s
Additional command line options : -8 -V -T "artist=%a" -T "title=%t" -T "album=%g" -T "date=%y" -T "tracknumber=%n" -T "genre=%m" -T "comment=Mosaic MD4-194" %s

Other options :
Fill up missing offset samples with silence : Yes
Delete leading and trailing silent blocks : No
Native Win32 interface for Win NT & 2000


Track 1
Filename E:\Upload Geplant\Donald Byrd & Pepper Adams - The Complete Blue Note Studio Sessions (2000) [FLAC] (Mosaic 4CD))\Disc 3 of 4\01 - I'm An Old Cowhand.wav

Pre-gap length 0:00:02.00

Peak level 98.8 %
Track quality 99.9 %
Test CRC E568D72D
Copy CRC E568D72D
Copy OK

Track 2
Filename E:\Upload Geplant\Donald Byrd & Pepper Adams - The Complete Blue Note Studio Sessions (2000) [FLAC] (Mosaic 4CD))\Disc 3 of 4\02 - You're Next.wav

Pre-gap length 0:00:02.00

Peak level 98.8 %
Track quality 100.0 %
Test CRC 4353992D
Copy CRC 4353992D
Copy OK

Track 3
Filename E:\Upload Geplant\Donald Byrd & Pepper Adams - The Complete Blue Note Studio Sessions (2000) [FLAC] (Mosaic 4CD))\Disc 3 of 4\03 - Chant.wav

Pre-gap length 0:00:01.50

Peak level 96.2 %
Track quality 100.0 %
Test CRC 6EF72DE6
Copy CRC 6EF72DE6
Copy OK

Track 4
Filename E:\Upload Geplant\Donald Byrd & Pepper Adams - The Complete Blue Note Studio Sessions (2000) [FLAC] (Mosaic 4CD))\Disc 3 of 4\04 - That's All.wav

Pre-gap length 0:00:01.76

Peak level 98.0 %
Track quality 100.0 %
Test CRC E3D72417
Copy CRC E3D72417
Copy OK

Track 5
Filename E:\Upload Geplant\Donald Byrd & Pepper Adams - The Complete Blue Note Studio Sessions (2000) [FLAC] (Mosaic 4CD))\Disc 3 of 4\05 - Great God.wav

Pre-gap length 0:00:01.66

Peak level 98.8 %
Track quality 100.0 %
Test CRC 6738EE11
Copy CRC 6738EE11
Copy OK

Track 6
Filename E:\Upload Geplant\Donald Byrd & Pepper Adams - The Complete Blue Note Studio Sessions (2000) [FLAC] (Mosaic 4CD))\Disc 3 of 4\06 - Sophisticated Lady.wav

Pre-gap length 0:00:01.53

Peak level 97.5 %
Track quality 99.9 %
Test CRC 7C97A227
Copy CRC 7C97A227
Copy OK

Track 7
Filename E:\Upload Geplant\Donald Byrd & Pepper Adams - The Complete Blue Note Studio Sessions (2000) [FLAC] (Mosaic 4CD))\Disc 3 of 4\07 - Say You're Mine.wav

Pre-gap length 0:00:01.73

Peak level 98.8 %
Track quality 100.0 %
Test CRC 7EF9F10F
Copy CRC 7EF9F10F
Copy OK

Track 8
Filename E:\Upload Geplant\Donald Byrd & Pepper Adams - The Complete Blue Note Studio Sessions (2000) [FLAC] (Mosaic 4CD))\Disc 3 of 4\08 - Duke's Mixture.wav

Pre-gap length 0:00:01.20

Peak level 98.8 %
Track quality 100.0 %
Test CRC CAA1FDEA
Copy CRC CAA1FDEA
Copy OK

Track 9
Filename E:\Upload Geplant\Donald Byrd & Pepper Adams - The Complete Blue Note Studio Sessions (2000) [FLAC] (Mosaic 4CD))\Disc 3 of 4\09 - Each Time I Think Of You.wav

Pre-gap length 0:00:01.40

Peak level 98.8 %
Track quality 100.0 %
Test CRC F8CF4C16
Copy CRC F8CF4C16
Copy OK

No errors occured


End of status report

EAC extraction logfile from 25. November 2005, 8:16 for CD
Donald Byrd & Pepper Adams / The Complete Blue Note Donald Byrd & Pepper Adams Studio Sessions (Disc 4 of 4)

Used drive : PLEXTOR CD-R PX-W4824A Adapter: 1 ID: 0
Read mode : Secure with NO C2, accurate stream, disable cache
Read offset correction : 98
Overread into Lead-In and Lead-Out : Yes

Used output format : D:\Programme\FLAC\flac.exe (User Defined Encoder)
320 kBit/s
Additional command line options : -8 -V -T "artist=%a" -T "title=%t" -T "album=%g" -T "date=%y" -T "tracknumber=%n" -T "genre=%m" -T "comment=Mosaic MD4-194" %s

Other options :
Fill up missing offset samples with silence : Yes
Delete leading and trailing silent blocks : No
Native Win32 interface for Win NT & 2000


Track 1
Filename E:\Upload Geplant\Donald Byrd & Pepper Adams - The Complete Blue Note Studio Sessions (2000) [FLAC] (Mosaic 4CD))\Disc 4 of 4\01 - The Cat Walk.wav

Pre-gap length 0:00:02.00

Peak level 98.8 %
Track quality 99.9 %
Test CRC 031B5D4C
Copy CRC 031B5D4C
Copy OK

Track 2
Filename E:\Upload Geplant\Donald Byrd & Pepper Adams - The Complete Blue Note Studio Sessions (2000) [FLAC] (Mosaic 4CD))\Disc 4 of 4\02 - Cute.wav

Pre-gap length 0:00:01.37

Peak level 98.8 %
Track quality 100.0 %
Test CRC 64857743
Copy CRC 64857743
Copy OK

Track 3
Filename E:\Upload Geplant\Donald Byrd & Pepper Adams - The Complete Blue Note Studio Sessions (2000) [FLAC] (Mosaic 4CD))\Disc 4 of 4\03 - Hello Bright Sunflower.wav

Pre-gap length 0:00:01.96

Peak level 98.8 %
Track quality 100.0 %
Test CRC 204638AF
Copy CRC 204638AF
Copy OK

Track 4
Filename E:\Upload Geplant\Donald Byrd & Pepper Adams - The Complete Blue Note Studio Sessions (2000) [FLAC] (Mosaic 4CD))\Disc 4 of 4\04 - Hush.wav

Pre-gap length 0:00:02.33

Peak level 88.1 %
Track quality 100.0 %
Test CRC EE7286FB
Copy CRC EE7286FB
Copy OK

Track 5
Filename E:\Upload Geplant\Donald Byrd & Pepper Adams - The Complete Blue Note Studio Sessions (2000) [FLAC] (Mosaic 4CD))\Disc 4 of 4\05 - I'm A Fool To Want You.wav

Pre-gap length 0:00:01.40

Peak level 98.8 %
Track quality 100.0 %
Test CRC 46F11A6A
Copy CRC 46F11A6A
Copy OK

Track 6
Filename E:\Upload Geplant\Donald Byrd & Pepper Adams - The Complete Blue Note Studio Sessions (2000) [FLAC] (Mosaic 4CD))\Disc 4 of 4\06 - Jorgie's.wav

Pre-gap length 0:00:02.33

Peak level 98.8 %
Track quality 99.9 %
Test CRC 42A6764F
Copy CRC 42A6764F
Copy OK

Track 7
Filename E:\Upload Geplant\Donald Byrd & Pepper Adams - The Complete Blue Note Studio Sessions (2000) [FLAC] (Mosaic 4CD))\Disc 4 of 4\07 - Shangri-La.wav

Pre-gap length 0:00:02.20

Peak level 98.8 %
Track quality 100.0 %
Test CRC C360BDBD
Copy CRC C360BDBD
Copy OK

Track 8
Filename E:\Upload Geplant\Donald Byrd & Pepper Adams - The Complete Blue Note Studio Sessions (2000) [FLAC] (Mosaic 4CD))\Disc 4 of 4\08 - 6 M's.wav

Pre-gap length 0:00:01.06

Peak level 98.8 %
Track quality 100.0 %
Test CRC 67B49901
Copy CRC 67B49901
Copy OK

Track 9
Filename E:\Upload Geplant\Donald Byrd & Pepper Adams - The Complete Blue Note Studio Sessions (2000) [FLAC] (Mosaic 4CD))\Disc 4 of 4\09 - Requiem.wav

Pre-gap length 0:00:01.66

Peak level 98.8 %
Track quality 100.0 %
Test CRC 71E97EA5
Copy CRC 71E97EA5
Copy OK

No errors occured


End of status report


Donald Byrd & Pepper Adams - The Complete Blue Note Studio Sessions (2000) {4CD Box Set Mosaic MD4-194 rec 1959-1962}

Donald Byrd & Pepper Adams - The Complete Blue Note Studio Sessions (2000) {4CD Box Set Mosaic MD4-194 rec 1959-1962}

Donald Byrd & Pepper Adams - The Complete Blue Note Studio Sessions (2000) {4CD Box Set Mosaic MD4-194 rec 1959-1962}

Donald Byrd & Pepper Adams - The Complete Blue Note Studio Sessions (2000) {4CD Box Set Mosaic MD4-194 rec 1959-1962}



===