Subcategories

Donald Harrison - Free Style (2002) {Nagel Heyer 2059 rel 2004}

Posted By: ruskaval
Donald Harrison - Free Style (2002) {Nagel Heyer 2059 rel 2004}

Donald Harrison - Free Style (2002) {Nagel Heyer 2059 rel 2004}
EAC rip (secure mode) | FLAC (tracks)+CUE+LOG -> 445 Mb | MP3 @320 -> 152 Mb
Full Artwork @ 300 dpi (jpg) -> 11 Mb | 5% repair rar
© 2002, 2004 Nagel Heyer Records | nagel heyer 2059
Jazz / Post Bop / Saxophone

Donald Harrison plays quite well throughout this set, displaying a distinctive tone and a consistently creative style within the genre of straight-ahead jazz. All but the last two selections feature him accompanied by bassist Vicente Archer and drummer John Lamkin, both of whom stay very much in the background, often playing repetitive and somewhat dull figures. Pianist Glenn Patscha is on three numbers without making an impression, while the final two songs have Harrison joined by Ron Carter and Billy Cobham.

The idea behind this outing is not described in the brief liner notes. Harrison's alto solos are excellent and varied but it is a pity that all of the support he receives is very anonymous, laid-back and unimaginative. Was this on purpose? But fans of Donald Harrison are still advised to pick this one up for his playing.
Donald Harrison - Free Style (2002) {Nagel Heyer 2059 rel 2004}


AAJ INFO

Musicians
Donald Harrison - alto saxophone
Vicente Archer, Ron Carter - bass
Glenn Patscha - piano
John Lamkin, Billy Cobham - drums

Recorded at Avatar Studios, New York City, 1. & 2 12. 2002

Tracklisting
1. Hand Jive (T. Williams) (5:50)
2. Free Style (D. Harrison) (4:43)
3. New Hope (D. Harrison) (5:39)
4. Get Your Swerve (D. Harrison) (6:04)
5. So What (M. Davis) (6:44)
6. Rock Song (D. Harrison) (4:41)
7. Well You Needn't (T. Monk) (8:04)
8. Iko Iko (J. S. Crawford) (3:11)
9. Free to Be (D. Harrison) (7:03)
10. Heroes (D. Harrison) (6:15)
11. Candlelight (R. Carter) (6:33)

Exact Audio Copy V1.0 beta 3 from 29. August 2011

EAC extraction logfile from 8. March 2014, 18:52

Donald Harrison / Free Style

Used drive : PLEXTOR CD-R PREMIUM2 Adapter: 0 ID: 0

Read mode : Secure
Utilize accurate stream : Yes
Defeat audio cache : Yes
Make use of C2 pointers : No

Read offset correction : 30
Overread into Lead-In and Lead-Out : No
Fill up missing offset samples with silence : Yes
Delete leading and trailing silent blocks : No
Null samples used in CRC calculations : Yes
Used interface : Native Win32 interface for Win NT & 2000
Gap handling : Appended to previous track

Used output format : User Defined Encoder
Selected bitrate : 128 kBit/s
Quality : High
Add ID3 tag : No
Command line compressor : C:\Program Files\Exact Audio Copy\Flac\flac.exe
Additional command line options : -8 -V -T "ARTIST=%artist%" -T "TITLE=%title%" -T "ALBUM=%albumtitle%" -T "DATE=%year%" -T "TRACKNUMBER=%tracknr%" -T "TOTALTRACKS=%numtracks%" -T "GENRE=%genre%" -T "ALBUMARTIST=%albumartist%" -T "ALBUM ARTIST=%albumartist%" -T "COMMENT=EAC Secure Mode, Test & Copy, AccurateRip, FLAC -8" %source%


TOC of the extracted CD

Track | Start | Length | Start sector | End sector
––––––––––––––––––––––––––––-
1 | 0:00.00 | 5:50.06 | 0 | 26255
2 | 5:50.06 | 4:43.61 | 26256 | 47541
3 | 10:33.67 | 5:39.50 | 47542 | 73016
4 | 16:13.42 | 6:04.00 | 73017 | 100316
5 | 22:17.42 | 6:44.14 | 100317 | 130630
6 | 29:01.56 | 4:41.61 | 130631 | 151766
7 | 33:43.42 | 8:04.02 | 151767 | 188068
8 | 41:47.44 | 3:11.67 | 188069 | 202460
9 | 44:59.36 | 7:03.29 | 202461 | 234214
10 | 52:02.65 | 6:15.08 | 234215 | 262347
11 | 58:17.73 | 6:33.18 | 262348 | 291840


Track 1

Filename F:\EAC WAV\01 - Hand Jive.wav

Pre-gap length 0:00:02.00

Peak level 99.9 %
Extraction speed 9.0 X
Track quality 100.0 %
Test CRC 8837F189
Copy CRC 8837F189
Accurately ripped (confidence 1) [9C70219C] (AR v2)
Copy OK

Track 2

Filename F:\EAC WAV\02 - Free Style.wav

Pre-gap length 0:00:02.00

Peak level 85.2 %
Extraction speed 10.0 X
Track quality 100.0 %
Test CRC 85076543
Copy CRC 85076543
Accurately ripped (confidence 1) [B230D3EC] (AR v2)
Copy OK

Track 3

Filename F:\EAC WAV\03 - New Hope.wav

Pre-gap length 0:00:02.00

Peak level 100.0 %
Extraction speed 10.9 X
Track quality 100.0 %
Test CRC D9BEA1C6
Copy CRC D9BEA1C6
Accurately ripped (confidence 1) [E48EDA82] (AR v2)
Copy OK

Track 4

Filename F:\EAC WAV\04 - Get Your Swerve.wav

Pre-gap length 0:00:02.41

Peak level 100.0 %
Extraction speed 11.9 X
Track quality 100.0 %
Test CRC 74B5D9A0
Copy CRC 74B5D9A0
Accurately ripped (confidence 1) [D687D841] (AR v2)
Copy OK

Track 5

Filename F:\EAC WAV\05 - So What.wav

Pre-gap length 0:00:02.00

Peak level 100.0 %
Extraction speed 12.9 X
Track quality 100.0 %
Test CRC 54202A01
Copy CRC 54202A01
Accurately ripped (confidence 1) [67BCA480] (AR v2)
Copy OK

Track 6

Filename F:\EAC WAV\06 - Rock Song.wav

Pre-gap length 0:00:01.00

Peak level 99.9 %
Extraction speed 13.4 X
Track quality 100.0 %
Test CRC DD49B100
Copy CRC DD49B100
Accurately ripped (confidence 1) [4112D5DF] (AR v2)
Copy OK

Track 7

Filename F:\EAC WAV\07 - Well YOu Needn't.wav

Pre-gap length 0:00:02.00

Peak level 83.6 %
Extraction speed 13.3 X
Track quality 99.9 %
Test CRC 8825911E
Copy CRC 8825911E
Accurately ripped (confidence 1) [C7CA163F] (AR v2)
Copy OK

Track 8

Filename F:\EAC WAV\08 - Iko Iko.wav

Pre-gap length 0:00:02.00

Peak level 73.6 %
Extraction speed 11.1 X
Track quality 99.9 %
Test CRC 13711EE2
Copy CRC 13711EE2
Accurately ripped (confidence 1) [4E522009] (AR v2)
Copy OK

Track 9

Filename F:\EAC WAV\09 - Free to Be.wav

Pre-gap length 0:00:02.00

Peak level 83.7 %
Extraction speed 15.5 X
Track quality 100.0 %
Test CRC D6594AAE
Copy CRC D6594AAE
Accurately ripped (confidence 1) [A0F39D22] (AR v2)
Copy OK

Track 10

Filename F:\EAC WAV\10 - Heroes.wav

Pre-gap length 0:00:02.00

Peak level 84.8 %
Extraction speed 15.5 X
Track quality 100.0 %
Test CRC 1EEEAED7
Copy CRC 1EEEAED7
Accurately ripped (confidence 1) [6A3AEC1B] (AR v2)
Copy OK

Track 11

Filename F:\EAC WAV\11 - Candlelight.wav

Pre-gap length 0:00:02.00

Peak level 64.7 %
Extraction speed 14.8 X
Track quality 100.0 %
Test CRC 44DA5F8C
Copy CRC 44DA5F8C
Accurately ripped (confidence 1) [020ECA66] (AR v2)
Copy OK


All tracks accurately ripped

No errors occurred

End of status report

–– CUETools DB Plugin V2.1.3

[CTDB TOCID: 8MmLcJHPGY55NEV.E2lPtSXap.Q-] database access error: Pending


==== Log checksum D5304C8B1752442A2EAD88D7A3920D555FA3188F010775270B49298974962073 ====


Donald Harrison - Free Style (2002) {Nagel Heyer 2059 rel 2004}

Donald Harrison - Free Style (2002) {Nagel Heyer 2059 rel 2004}


see more Donald Harrison…


===