Subcategories

Donald Harrison - Spirits Of Congo Square (2000) {Candid CCD 79759 rec 1996}

Posted By: ruskaval
Donald Harrison - Spirits Of Congo Square (2000) {Candid CCD 79759 rec 1996}

Donald Harrison - Spirits Of Congo Square (2000) {Candid CCD 79759 rec 1996}
EAC rip (secure mode) | FLAC (tracks)+CUE+LOG -> 384 Mb | MP3 @320 -> 141 Mb
Full Artwork @ 300 dpi (jpg) -> 16 Mb | 5% repair rar
© 1996, 2000 Candid | CCD 79759
Jazz / Post Bop / New Orleans Legacy Ensemble / Saxophone

Altoist Donald Harrison's disc utilizes New Orleans parade rhythms on all of the selections, even while most of the solos (until the final three numbers) are more hard bop than New Orleans jazz. John O'Neal verbally pays tribute to the rhythms on the opening "And How That Rhythm." The other selections include an augmented bop blues ("Two Way Pocky Way"), the tricky "Don't Drink the Water," Thelonious Monk's "Bye-Ya," a pair of Freddie Hubbard tunes well worth reviving ("Crisis" and "Bob's Place"), Sonny Rollins' "Oleo," and the catchy "Spirits of Congo Square."

Throughout these performances there are many colorful solos from trumpeters Nicholas Payton and Marlon Jordan, trombonist Delfeayo Marsalis, Victor Goines on tenor, and Harrison. Roy Haynes' "True of False" is Dixieland-ish in its own eccentric way, with clarinetist Louis Ford and trumpeter Jamil Sharif being added to the band. Finally, Payton plays beautifully on a respectful rendition of "Just a Closer Walk With Thee" and all seven horns romp and riff throughout "The Second Line," which is really "Joe Avery's Blues." Overall, this colorful album is full of spirit, always holds on to one's interest, and is highly recommended.
Donald Harrison - Spirits Of Congo Square (2000) {Candid CCD 79759 rec 1996}


Musicians
Saxophone Donald Harrison
Vocals John O'Neal
Trumpet Nicholas Payton
Trumpet Marlon Jordan
Trumpet Jamil Sharif
Trombone Delfeayo Marsalis
Saxophone Victor Goines
Piano Peter Martin
Drums Adonis Rose
Clarinet Louis Ford
Bass Elton Heron

Tracklisting
01 And How That Rhythm 01:12
02 Two Way Pockey Way 07:51
03 Don't Drink The Water 03:29
04 Bye-Ya 04:07
05 Crisis 07:34
06 Bob's Place 05:40
07 Oleo 05:19
08 Spirits Of Congo Square 07:01
09 True Or False 06:16
10 Just A Close Walk With Thee 02:39
11 The Second Line 08:52

Exact Audio Copy V1.0 beta 1 from 15. November 2010

EAC extraction logfile from 16. September 2011, 8:26

Donald Harrison / Spirits Of Congo Square

Used drive : TSSTcorpCDDVDW SH-S203N Adapter: 0 ID: 2

Read mode : Secure
Utilize accurate stream : Yes
Defeat audio cache : Yes
Make use of C2 pointers : No

Read offset correction : 6
Overread into Lead-In and Lead-Out : No
Fill up missing offset samples with silence : Yes
Delete leading and trailing silent blocks : No
Null samples used in CRC calculations : Yes
Used interface : Installed external ASPI interface
Gap handling : Appended to previous track

Used output format : User Defined Encoder
Selected bitrate : 768 kBit/s
Quality : High
Add ID3 tag : No
Command line compressor : C:\Program Files\Exact Audio Copy-NEW\Flac\flac.exe
Additional command line options : -8 -V -T "ARTIST=%a" -T "TITLE=%t" -T "ALBUM=%g" -T "DATE=%y" -T "TRACKNUMBER=%n" -T "TOTALTRACKS=%x" -T "GENRE=%m" -T "ALBUMARTIST=%v" -T "ALBUM ARTIST=%v" -T "COMMENT=EAC V1.01b1, Secure Mode, Test & Copy, AccurateRip, FL


TOC of the extracted CD

Track | Start | Length | Start sector | End sector
––––––––––––––––––––––––––––-
1 | 0:00.00 | 1:12.14 | 0 | 5413
2 | 1:12.14 | 7:51.15 | 5414 | 40753
3 | 9:03.29 | 3:29.51 | 40754 | 56479
4 | 12:33.05 | 4:07.33 | 56480 | 75037
5 | 16:40.38 | 7:34.61 | 75038 | 109148
6 | 24:15.24 | 5:40.54 | 109149 | 134702
7 | 29:56.03 | 5:19.31 | 134703 | 158658
8 | 35:15.34 | 7:01.37 | 158659 | 190270
9 | 42:16.71 | 6:16.15 | 190271 | 218485
10 | 48:33.11 | 2:39.51 | 218486 | 230461
11 | 51:12.62 | 8:52.71 | 230462 | 270432


Track 1

Filename J:\New Rips\Donald Harrison - Spirits Of Congo Square (2000) [FLAC]\01 - And How That Rhythm.wav

Pre-gap length 0:00:02.00

Peak level 98.8 %
Extraction speed 3.3 X
Track quality 100.0 %
Test CRC B2B98530
Copy CRC B2B98530
Track not present in AccurateRip database
Copy OK

Track 2

Filename J:\New Rips\Donald Harrison - Spirits Of Congo Square (2000) [FLAC]\02 - Two Way Pockey Way.wav

Pre-gap length 0:00:01.45

Peak level 99.9 %
Extraction speed 4.8 X
Track quality 99.9 %
Test CRC 59914635
Copy CRC 59914635
Track not present in AccurateRip database
Copy OK

Track 3

Filename J:\New Rips\Donald Harrison - Spirits Of Congo Square (2000) [FLAC]\03 - Don't Drink The Water.wav

Pre-gap length 0:00:01.45

Peak level 95.0 %
Extraction speed 5.5 X
Track quality 100.0 %
Test CRC BC038115
Copy CRC BC038115
Track not present in AccurateRip database
Copy OK

Track 4

Filename J:\New Rips\Donald Harrison - Spirits Of Congo Square (2000) [FLAC]\04 - Bye-Ya.wav

Pre-gap length 0:00:01.45

Peak level 89.1 %
Extraction speed 6.1 X
Track quality 100.0 %
Test CRC DFDC3BCF
Copy CRC DFDC3BCF
Track not present in AccurateRip database
Copy OK

Track 5

Filename J:\New Rips\Donald Harrison - Spirits Of Congo Square (2000) [FLAC]\05 - Crisis.wav

Pre-gap length 0:00:01.45

Peak level 98.8 %
Extraction speed 7.1 X
Track quality 100.0 %
Test CRC 7F9DDFBC
Copy CRC 7F9DDFBC
Track not present in AccurateRip database
Copy OK

Track 6

Filename J:\New Rips\Donald Harrison - Spirits Of Congo Square (2000) [FLAC]\06 - Bob's Place.wav

Pre-gap length 0:00:01.45

Peak level 98.8 %
Extraction speed 6.3 X
Track quality 99.9 %
Test CRC 6AC884A1
Copy CRC 6AC884A1
Track not present in AccurateRip database
Copy OK

Track 7

Filename J:\New Rips\Donald Harrison - Spirits Of Congo Square (2000) [FLAC]\07 - Oleo.wav

Pre-gap length 0:00:01.46

Peak level 98.8 %
Extraction speed 7.9 X
Track quality 100.0 %
Test CRC 701E96E7
Copy CRC 701E96E7
Track not present in AccurateRip database
Copy OK

Track 8

Filename J:\New Rips\Donald Harrison - Spirits Of Congo Square (2000) [FLAC]\08 - Spirits Of Congo Square.wav

Pre-gap length 0:00:01.45

Peak level 98.8 %
Extraction speed 8.5 X
Track quality 100.0 %
Test CRC 063C4C3C
Copy CRC 063C4C3C
Track not present in AccurateRip database
Copy OK

Track 9

Filename J:\New Rips\Donald Harrison - Spirits Of Congo Square (2000) [FLAC]\09 - True Or False.wav

Pre-gap length 0:00:01.45

Peak level 98.8 %
Extraction speed 9.0 X
Track quality 100.0 %
Test CRC 7370C5A5
Copy CRC 7370C5A5
Track not present in AccurateRip database
Copy OK

Track 10

Filename J:\New Rips\Donald Harrison - Spirits Of Congo Square (2000) [FLAC]\10 - Just A Close Walk With Thee.wav

Pre-gap length 0:00:01.45

Peak level 98.8 %
Extraction speed 8.2 X
Track quality 100.0 %
Test CRC A42D5277
Copy CRC A42D5277
Track not present in AccurateRip database
Copy OK

Track 11

Filename J:\New Rips\Donald Harrison - Spirits Of Congo Square (2000) [FLAC]\11 - The Second Line.wav

Pre-gap length 0:00:01.45

Peak level 98.8 %
Extraction speed 8.8 X
Track quality 99.9 %
Test CRC FFEB5563
Copy CRC FFEB5563
Track not present in AccurateRip database
Copy OK


None of the tracks are present in the AccurateRip database

No errors occurred

End of status report

==== Log checksum BD0DBC29E62227027AB21839D85D650F6188FC58B457422CE0680EEBFE6658F4 ====


Donald Harrison - Spirits Of Congo Square (2000) {Candid CCD 79759 rec 1996}

Donald Harrison - Spirits Of Congo Square (2000) {Candid CCD 79759 rec 1996}


see more Donald Harrison…


===