Subcategories

Dorantes & Renaud Garcia-Fons - Paseo A Dos (2016) {E-motive Records}

Posted By: ruskaval
Dorantes & Renaud Garcia-Fons - Paseo A Dos (2016) {E-motive Records}

Dorantes & Renaud Garcia-Fons - Paseo A Dos (2016) {E-Motive Records}
EAC rip (secure mode) | FLAC (tracks)+CUE+LOG -> 279 Mb | MP3 @320 -> 138 Mb
Full Artwork @ 300 dpi (png) -> 28 Mb | 5% repair rar
© 2016 E-motive Records / Nemomusic / L'autre Distribution | EMO151
Jazz / Contemporary Jazz / Flamenco Jazz / Double Bass / Piano

Renaud Garcia-Fons is well familiar with world music fans, as the 5-string acoustic bass player has a large number of Mediterranean world fusion recordings with many guest musicians. Dorantes [David Peña Dorantes] is less well known here. A nuevo flamenco pianist and composer, nephew of cantaor El Lebrijano, Dorantes has elegant classical style, influenced by de Falla and the Impressionists, but is well versed in jazz, too. Indeed, his piano work is an extraordinary blending.

Together with Garcia-Fons, he performs flamenco-inspired pieces in standard form: bulerías, malagueña, guarjiras, soleá, garrotín y livianas, siguriya, tangos. Garcia-Fons bows his bass often to complement the percussive piano. Both artists are improvisers as well as composers; indeed, flamenco is a improvisational art. Thus, the tunes are built upon melodic phrases common to both, but their expertise develops and expands the essence into delightful nuevo flamenco/jazz explorations. The two had collaborated before in Dorantes' album Sin Muros! [exclamation in title]. This duet will surely please jazz, flamenco, and world music fans. I am very impressed by Dorantes piano work and expect that his talent will soon be better appreciated here in the USA. I rejoice in this album.
Dorantes & Renaud Garcia-Fons - Paseo A Dos (2016) {E-motive Records}


Personnel:
Dorantes - piano
Renaud Garcia-Fons - 5 strings double bass

Dorantes & Renaud Garcia-Fons - Paseo A Dos (2016) {E-motive Records}


tracklist:
01 - Molto enrollado (Bulerias)
02 - Palabras de ensueno (Malaguena)
03 - Entre las rosas (Guajiras)
04 - En el crisol de la noche (Solea)
05 - Mar y rayo (Garrotin y Livianas)
06 - Como sueno infantil (Siguirilla)
07 - El rio os espera (Tangos)
08 - La promessa del alba (Rondena)
09 - Amanecer

Exact Audio Copy V1.1 from 23. June 2015

EAC extraction logfile from 13. January 2016, 12:22

Dorantes, Renaud Garcia-Fons / Paseo A Dos

Used drive : ATAPI iHBS112 2 Adapter: 1 ID: 1

Read mode : Secure
Utilize accurate stream : Yes
Defeat audio cache : Yes
Make use of C2 pointers : No

Read offset correction : 6
Overread into Lead-In and Lead-Out : No
Fill up missing offset samples with silence : Yes
Delete leading and trailing silent blocks : No
Null samples used in CRC calculations : Yes
Used interface : Native Win32 interface for Win NT & 2000
Gap handling : Appended to previous track

Used output format : User Defined Encoder
Selected bitrate : 128 kBit/s
Quality : High
Add ID3 tag : No
Command line compressor : C:\Program Files\Exact Audio Copy\Flac\flac.exe
Additional command line options : -8 -V -T "ARTIST=%artist%" -T "TITLE=%title%" -T "ALBUM=%albumtitle%" -T "DATE=%year%" -T "TRACKNUMBER=%tracknr%" -T "GENRE=%genre%" -T "PERFORMER=%albuminterpret%" -T "COMPOSER=%composer%" -T "ALBUMARTIST=%albumartist%" -T "DISCNUMBER=%cdnumber%" -T "TOTALDISCS=%totalcds%" -T "TOTALTRACKS=%numtracks%" -T "COMMENT=EAC Secure Mode, Test & Copy, AccurateRip, FLAC -8" %source% -o %dest%


TOC of the extracted CD

Track | Start | Length | Start sector | End sector
––––––––––––––––––––––––––––-
1 | 0:00.00 | 5:17.74 | 0 | 23848
2 | 5:17.74 | 7:48.29 | 23849 | 58977
3 | 13:06.28 | 3:34.39 | 58978 | 75066
4 | 16:40.67 | 6:24.48 | 75067 | 103914
5 | 23:05.40 | 9:08.06 | 103915 | 145020
6 | 32:13.46 | 4:43.48 | 145021 | 166293
7 | 36:57.19 | 9:15.35 | 166294 | 207953
8 | 46:12.54 | 8:40.68 | 207954 | 247021
9 | 54:53.47 | 3:10.62 | 247022 | 261333


Track 1

Filename J:\DL\Dorantes, Renaud Garcia-Fons - Paseo A Dos (2015) [FLAC]\01 - Molto enrollado (Bulerias).wav

Pre-gap length 0:00:02.00

Peak level 100.0 %
Extraction speed 5.2 X
Track quality 100.0 %
Test CRC 3F8D2E90
Copy CRC 3F8D2E90
Accurately ripped (confidence 2) [70DC9824] (AR v2)
Copy OK

Track 2

Filename J:\DL\Dorantes, Renaud Garcia-Fons - Paseo A Dos (2015) [FLAC]\02 - Palabras de ensueno (Malaguena).wav

Pre-gap length 0:00:01.26

Peak level 98.9 %
Extraction speed 6.1 X
Track quality 100.0 %
Test CRC 8ED72C1E
Copy CRC 8ED72C1E
Accurately ripped (confidence 2) [D6ACF47B] (AR v2)
Copy OK

Track 3

Filename J:\DL\Dorantes, Renaud Garcia-Fons - Paseo A Dos (2015) [FLAC]\03 - Entre las rosas (Guajiras).wav

Peak level 98.6 %
Extraction speed 6.3 X
Track quality 100.0 %
Test CRC A4DDE874
Copy CRC A4DDE874
Accurately ripped (confidence 2) [D5EDD450] (AR v2)
Copy OK

Track 4

Filename J:\DL\Dorantes, Renaud Garcia-Fons - Paseo A Dos (2015) [FLAC]\04 - En el crisol de la noche (Solea).wav

Pre-gap length 0:00:01.37

Peak level 99.2 %
Extraction speed 6.9 X
Track quality 100.0 %
Test CRC D3D78468
Copy CRC D3D78468
Accurately ripped (confidence 2) [B1248574] (AR v2)
Copy OK

Track 5

Filename J:\DL\Dorantes, Renaud Garcia-Fons - Paseo A Dos (2015) [FLAC]\05 - Mar y rayo (Garrotin y Livianas).wav

Pre-gap length 0:00:02.00

Peak level 100.0 %
Extraction speed 7.8 X
Track quality 100.0 %
Test CRC D62A9FEE
Copy CRC D62A9FEE
Accurately ripped (confidence 2) [B3B120B9] (AR v2)
Copy OK

Track 6

Filename J:\DL\Dorantes, Renaud Garcia-Fons - Paseo A Dos (2015) [FLAC]\06 - Como sueno infantil (Siguirilla).wav

Pre-gap length 0:00:01.54

Peak level 100.0 %
Extraction speed 7.6 X
Track quality 100.0 %
Test CRC B614838B
Copy CRC B614838B
Accurately ripped (confidence 2) [5B80EF3C] (AR v2)
Copy OK

Track 7

Filename J:\DL\Dorantes, Renaud Garcia-Fons - Paseo A Dos (2015) [FLAC]\07 - El rio os espera (Tangos).wav

Pre-gap length 0:00:03.00

Peak level 98.8 %
Extraction speed 9.1 X
Track quality 100.0 %
Test CRC 4E96FA4A
Copy CRC 4E96FA4A
Accurately ripped (confidence 2) [77420785] (AR v2)
Copy OK

Track 8

Filename J:\DL\Dorantes, Renaud Garcia-Fons - Paseo A Dos (2015) [FLAC]\08 - La promessa del alba (Rondena).wav

Peak level 98.9 %
Extraction speed 8.5 X
Track quality 99.9 %
Test CRC 22A05FD0
Copy CRC 22A05FD0
Accurately ripped (confidence 2) [0945500A] (AR v2)
Copy OK

Track 9

Filename J:\DL\Dorantes, Renaud Garcia-Fons - Paseo A Dos (2015) [FLAC]\09 - Amanecer.wav

Pre-gap length 0:00:01.66

Peak level 98.5 %
Extraction speed 8.9 X
Track quality 100.0 %
Test CRC AEF5F261
Copy CRC AEF5F261
Accurately ripped (confidence 2) [BFE599DF] (AR v2)
Copy OK


All tracks accurately ripped

No errors occurred

End of status report

–– CUETools DB Plugin V2.1.6

[CTDB TOCID: bCG0EYfMv_dhYmkRnvF45bJUaN0-] found
Submit result: bCG0EYfMv_dhYmkRnvF45bJUaN0- has been confirmed
Track | CTDB Status
1 | (13/13) Accurately ripped
2 | (13/13) Accurately ripped
3 | (13/13) Accurately ripped
4 | (13/13) Accurately ripped
5 | (13/13) Accurately ripped
6 | (13/13) Accurately ripped
7 | (13/13) Accurately ripped
8 | (13/13) Accurately ripped
9 | (13/13) Accurately ripped


==== Log checksum 4CCBB387DAD68A57351753532BB1274ACB94FFA28AF257A8E642EEDC4105DF5E ====


Dorantes & Renaud Garcia-Fons - Paseo A Dos (2016) {E-motive Records}


thanks to dtromp…