Subcategories

Doug Hammond - A Real Deal (2007)

Posted By: Domestos
Doug Hammond - A Real Deal (2007)

Doug Hammond - A Real Deal (2007)
XLD Rip | FLAC (tracks+.cue, log) ~ 242.73 Mb | 45:51 | Covers
Soul-Jazz, Spiritual Jazz, Fusion, Vocal | Country: USA | Label: Heavenly Sweetness - HS001CD

Drummer and singer Doug Hammond cut his teeth playing alongside greats like Earl Hooker, Sam and Dave, Sonny Rollins and Nina Simone. During the mid-seventies Hammond even spent a five-year period performing and eventually recording with Charles Mingus. Having spent the past fifteen years laying low in Linz, Austria teaching drumming and composition, Hammond got reacquainted with old friend and Detroit-based jazz pianist Kirk Lightsey and set about making this album.

Hammond plays a variety of percussion instruments on the album, even opening up with the gamelan-like We People over which Hammond lays a vocal. Next, on Tera, Lightsey joins in with some warm, melancholy chords as accompaniment of another Hammond vocal. We Together Struttin' reverts to a solo format with swinging drums and odd, self-help, pep-talk type lyrics. When he's in full flow the veteran drummer makes quite some racket, soloing wildly, but Kieran Hebden shows up at the eleventh hour to provide a 'club mix', organising everything around a slow breakbeat structure, which actually works rather well.

Track List:
01. We People (Hammond) - 3:36
02. A Tear (Hammond) - 4:05
03. We Together/Strutin' In (Hammond) - 3:25
04. Real Deal (Hammond) - 3:35
05. Singing Smiles/Miss Cat/Perspicuity (Hammond) - 4:56
06. Moves (Hammond) - 6:05
07. Rizz Biz (Hammond) - 2:54
08. Wholeness/The One in All/Forgetfulness (Lightsey) - 5:11
09. From Spirits/Vain X/Placement (Hammond) - 3:19
10. Laughing Time/Mo' Folks/Dope of Power (Hammond) - 4:18
11. Dope of Power Suite (Four Tet Club Mix) (Hammond) - 4:27

Doug Hammond - vocals, drums, sanza
Kirk Lightsey - piano

Recorded at Morningstar Studios, East Norriton, PA on May 13, 2006.

Doug Hammond - A Real Deal (2007)

X Lossless Decoder version 20151214 (149.1)

XLD extraction logfile from 2017-04-24 17:25:53 -0400

Doug Hammond / A Real Deal

Used drive : PIONEER DVD-RW DVR-111D (revision AB09)
Media type : Pressed CD

Ripper mode : XLD Secure Ripper
Disable audio cache : OK for the drive with a cache less than 1375KiB
Make use of C2 pointers : NO
Read offset correction : 48
Max retry count : 100
Gap status : Analyzed, Appended (except HTOA)

TOC of the extracted CD
Track | Start | Length | Start sector | End sector
––––––––––––––––––––––––––––-
1 | 00:00:00 | 03:35:58 | 0 | 16182
2 | 03:35:58 | 04:05:02 | 16183 | 34559
3 | 07:40:60 | 03:25:19 | 34560 | 49953
4 | 11:06:04 | 03:34:49 | 49954 | 66052
5 | 14:40:53 | 04:55:64 | 66053 | 88241
6 | 19:36:42 | 06:04:52 | 88242 | 115593
7 | 25:41:19 | 02:54:30 | 115594 | 128673
8 | 28:35:49 | 05:10:39 | 128674 | 151962
9 | 33:46:13 | 03:18:64 | 151963 | 166876
10 | 37:05:02 | 04:18:01 | 166877 | 186227
11 | 41:23:03 | 04:26:73 | 186228 | 206250

AccurateRip Summary (DiscID: 001278d3-00a1a727-980abe0b)
Track 01 : OK (v1, confidence 3/3)
Track 02 : OK (v1, confidence 4/4)
Track 03 : OK (v1, confidence 4/4)
Track 04 : OK (v1, confidence 4/4)
Track 05 : OK (v1, confidence 4/4)
Track 06 : OK (v1, confidence 4/4)
Track 07 : OK (v1, confidence 4/4)
Track 08 : OK (v1, confidence 4/4)
Track 09 : OK (v1, confidence 4/4)
Track 10 : OK (v1, confidence 4/4)
Track 11 : OK (v1, confidence 4/4)
->All tracks accurately ripped.

All Tracks
Album gain : -9.23 dB
Peak : 1.000000
Statistics
Read error : 0
Jitter error (maybe fixed) : 0
Retry sector count : 0
Damaged sector count : 0

Track 01
Filename : /Users/gamall/Desktop/Doug Hammond - A Real Deal/01 Doug Hammond - We People.flac
Pre-gap length : 00:02:00

Track gain : -6.52 dB
Peak : 0.985382
CRC32 hash (test run) : 4A220A43
CRC32 hash : 4A220A43
CRC32 hash (skip zero) : 90EDCF4C
AccurateRip v1 signature : 30B6CCC9
AccurateRip v2 signature : C6B54027
->Accurately ripped (v1, confidence 3/3)
Statistics
Read error : 0
Jitter error (maybe fixed) : 0
Retry sector count : 0
Damaged sector count : 0

Track 02
Filename : /Users/gamall/Desktop/Doug Hammond - A Real Deal/02 Doug Hammond - A Tera.flac
Pre-gap length : 00:02:00

Track gain : -7.84 dB
Peak : 0.978271
CRC32 hash (test run) : 6901EDEE
CRC32 hash : 6901EDEE
CRC32 hash (skip zero) : DC5440A7
AccurateRip v1 signature : 7FA22027
AccurateRip v2 signature : AF468A93
->Accurately ripped (v1, confidence 4/4)
Statistics
Read error : 0
Jitter error (maybe fixed) : 0
Retry sector count : 0
Damaged sector count : 0

Track 03
Filename : /Users/gamall/Desktop/Doug Hammond - A Real Deal/03 Doug Hammond - We Together Struttin' In.flac
Pre-gap length : 00:02:00

Track gain : -8.48 dB
Peak : 0.987000
CRC32 hash (test run) : DE4F5F98
CRC32 hash : DE4F5F98
CRC32 hash (skip zero) : A01C564C
AccurateRip v1 signature : B764C981
AccurateRip v2 signature : B64237E5
->Accurately ripped (v1, confidence 4/4)
Statistics
Read error : 0
Jitter error (maybe fixed) : 0
Retry sector count : 0
Damaged sector count : 0

Track 04
Filename : /Users/gamall/Desktop/Doug Hammond - A Real Deal/04 Doug Hammond - Real Deal.flac
Pre-gap length : 00:02:00

Track gain : -5.46 dB
Peak : 0.996002
CRC32 hash (test run) : D68F9D66
CRC32 hash : D68F9D66
CRC32 hash (skip zero) : 10BE963E
AccurateRip v1 signature : 4EE24F7D
AccurateRip v2 signature : 65354FAF
->Accurately ripped (v1, confidence 4/4)
Statistics
Read error : 0
Jitter error (maybe fixed) : 0
Retry sector count : 0
Damaged sector count : 0

Track 05
Filename : /Users/gamall/Desktop/Doug Hammond - A Real Deal/05 Doug Hammond - Singin Smiles / Miss Cat / Perspicuity.flac
Pre-gap length : 00:02:00

Track gain : -10.30 dB
Peak : 1.000000
CRC32 hash (test run) : 4C4F2506
CRC32 hash : 4C4F2506
CRC32 hash (skip zero) : B1964D76
AccurateRip v1 signature : 2BAA086E
AccurateRip v2 signature : 882CFC3B
->Accurately ripped (v1, confidence 4/4)
Statistics
Read error : 0
Jitter error (maybe fixed) : 0
Retry sector count : 0
Damaged sector count : 0

Track 06
Filename : /Users/gamall/Desktop/Doug Hammond - A Real Deal/06 Doug Hammond - Moves.flac
Pre-gap length : 00:02:00

Track gain : -9.02 dB
Peak : 0.982391
CRC32 hash (test run) : 056652B1
CRC32 hash : 056652B1
CRC32 hash (skip zero) : DE253939
AccurateRip v1 signature : E6CD8DB9
AccurateRip v2 signature : 190580AA
->Accurately ripped (v1, confidence 4/4)
Statistics
Read error : 0
Jitter error (maybe fixed) : 0
Retry sector count : 0
Damaged sector count : 0

Track 07
Filename : /Users/gamall/Desktop/Doug Hammond - A Real Deal/07 Doug Hammond - Rizz Biz.flac
Pre-gap length : 00:02:00

Track gain : -10.07 dB
Peak : 0.999939
CRC32 hash (test run) : 4B900080
CRC32 hash : 4B900080
CRC32 hash (skip zero) : 36BAE8F4
AccurateRip v1 signature : 51B6B5EE
AccurateRip v2 signature : A42A8DD6
->Accurately ripped (v1, confidence 4/4)
Statistics
Read error : 0
Jitter error (maybe fixed) : 0
Retry sector count : 0
Damaged sector count : 0

Track 08
Filename : /Users/gamall/Desktop/Doug Hammond - A Real Deal/08 Doug Hammond - Wholeness/ The One In All / Forgetfullness.flac
Pre-gap length : 00:02:00

Track gain : -9.49 dB
Peak : 0.984528
CRC32 hash (test run) : F1A3A437
CRC32 hash : F1A3A437
CRC32 hash (skip zero) : DC3AB49A
AccurateRip v1 signature : 6D9A877C
AccurateRip v2 signature : CCE834A7
->Accurately ripped (v1, confidence 4/4)
Statistics
Read error : 0
Jitter error (maybe fixed) : 0
Retry sector count : 0
Damaged sector count : 0

Track 09
Filename : /Users/gamall/Desktop/Doug Hammond - A Real Deal/09 Doug Hammond - From Spirits / Vain X / Placement.flac
Pre-gap length : 00:02:00

Track gain : -10.03 dB
Peak : 0.999969
CRC32 hash (test run) : E4C2FBD0
CRC32 hash : E4C2FBD0
CRC32 hash (skip zero) : 8AB6146E
AccurateRip v1 signature : F2917D07
AccurateRip v2 signature : 8D8D8C3A
->Accurately ripped (v1, confidence 4/4)
Statistics
Read error : 0
Jitter error (maybe fixed) : 0
Retry sector count : 0
Damaged sector count : 0

Track 10
Filename : /Users/gamall/Desktop/Doug Hammond - A Real Deal/10 Doug Hammond - Laughin Time / Mo's Folks / Dope Of Power.flac
Pre-gap length : 00:02:00

Track gain : -9.82 dB
Peak : 1.000000
CRC32 hash (test run) : 7DFDF47B
CRC32 hash : 7DFDF47B
CRC32 hash (skip zero) : 9EACF8E2
AccurateRip v1 signature : A53DFDC2
AccurateRip v2 signature : 5E1EABBE
->Accurately ripped (v1, confidence 4/4)
Statistics
Read error : 0
Jitter error (maybe fixed) : 0
Retry sector count : 0
Damaged sector count : 0

Track 11
Filename : /Users/gamall/Desktop/Doug Hammond - A Real Deal/11 Doug Hammond - Dope Of Power Suite (Four Tete Club Mix).flac
Pre-gap length : 00:02:00

Track gain : -6.93 dB
Peak : 0.966034
CRC32 hash (test run) : 5C2528C8
CRC32 hash : 5C2528C8
CRC32 hash (skip zero) : 437A5C33
AccurateRip v1 signature : B650EDEA
AccurateRip v2 signature : 48FEA99D
->Accurately ripped (v1, confidence 4/4)
Statistics
Read error : 0
Jitter error (maybe fixed) : 0
Retry sector count : 0
Damaged sector count : 0

No errors occurred

End of status report

––-BEGIN XLD SIGNATURE––-
V_zGqiYqI89gTiS180ESGWQPdZeAnKql4jt5No8CX8jXlEz4aCZMzoHm6mSR6bfcAYGb3AzKZK1.0oyQAZQxrKs8j6N0nT4xfg7OAMy
––-END XLD SIGNATURE––-

All thanks go to the bkmoomin

More Music in My Blog
Follow My RSS Channel