Subcategories

Dr. Lonnie Smith - Spiral (2010) {Palmetto PM 2142}

Posted By: ruskaval
Dr. Lonnie Smith - Spiral (2010) {Palmetto PM 2142}

Dr. Lonnie Smith - Spiral (2010) {Palmetto PM 2142}
EAC rip (secure mode) | FLAC (tracks)+CUE+LOG -> 295 Mb | MP3 @320 -> 114 Mb
Full Artwork @ 600 dpi (png) -> 128 Mb | 5% repair rar
© 2010 Palmetto Records | PM 2142
Jazz / Hammond B-3 / Soul Jazz

Dr. Lonnie Smith shows no signs of slowing down. Spiral is is his fifth studio album since 2003, and his fourth for Palmetto. Produced by Matt Balitsaris, Smith's trio includes guitarist Jonathan Kreisberg and drummer Jamire Williams. The program is a solid set of jazz nuggets, an original, and a couple of ballad standards. Things lead off with Jimmy Smith's "Mellow Mood," which is relaxed but hardly what the title suggests. Smith is in prime soul-jazz mode here, paying tribute to his mentor by swinging hard on the melody.

Another nice touch is the reading of Slide Hampton's "Frame for the Blues," a smoky, nocturnal slow burner that features a fine solo by Kreisberg. Smith's fire is reserved for Harold Mabern's stomping "Beehive," where the band not only plays full-bore, but executes the knotty harmonic and tempo changes flawlessly, making the tune feel more like a crackling rock jam than just a jazz tune – it'd be great to hear Smith's band perform this tune with Phish. Kreisberg's solo, which sounds a bit like steel drums, is the most mind-boggling thing on the record. More familiar material, such as "Sweet & Lovely" and "I Didn't Know What Time It Was," is handled with all the slippery swing that soul-jazz affords standards, and the trio is seamless – check Williams' drumming on the former tune where he slips in breaks and off-meter fills while staying firmly in the pocket – and deft in both surprise and depth. Spiral puts the full range of Smith's powers as an interpreter and improviser on display. This grooving trio makes it all sound easy, though nothing could be further from the truth.
Dr. Lonnie Smith - Spiral (2010) {Palmetto PM 2142}


AAJ INFO

Personnel: Dr. Lonnie Smith: Hammond organ; Jonathan Kreisberg: guitar; Jamire Williams: drums.

tracklist:
01. Mellow Mood
02. I've Never Been In Love Before
03. Frame For The Blues
04. I Didn't Know What Time It Was
05. Sweet & Lovely
06. Spiral
07. Beehive
08. Sukiyaki

Exact Audio Copy V1.3 from 2. September 2016

EAC extraction logfile from 27. April 2018, 16:35

Dr. Lonnie Smith / Spiral

Used drive : ATAPI iHAS122 F Adapter: 1 ID: 2

Read mode : Secure
Utilize accurate stream : Yes
Defeat audio cache : Yes
Make use of C2 pointers : No

Read offset correction : 6
Overread into Lead-In and Lead-Out : No
Fill up missing offset samples with silence : Yes
Delete leading and trailing silent blocks : No
Null samples used in CRC calculations : Yes
Used interface : Native Win32 interface for Win NT & 2000
Gap handling : Appended to previous track

Used output format : User Defined Encoder
Selected bitrate : 1024 kBit/s
Quality : High
Add ID3 tag : No
Command line compressor : C:\Program Files (x86)\Exact Audio Copy_v1.3\Flac\flac.exe
Additional command line options : -8 -V -T "ARTIST=%artist%" -T "TITLE=%title%" -T "ALBUM=%albumtitle%" -T "DATE=%year%" -T "TRACKNUMBER=%tracknr%" -T "TOTALTRACKS=%numtracks%" -T "GENRE=%genre%" -T "ALBUMARTIST=%albumartist%" -T "ALBUM ARTIST=%albumartist%" -T "COMMENT=EAC Secure Mode, Test & Copy, AccurateRip, FLAC -8" %source%


TOC of the extracted CD

Track | Start | Length | Start sector | End sector
––––––––––––––––––––––––––––-
1 | 0:00.00 | 5:12.50 | 0 | 23449
2 | 5:12.50 | 5:10.42 | 23450 | 46741
3 | 10:23.17 | 8:54.18 | 46742 | 86809
4 | 19:17.35 | 7:49.00 | 86810 | 121984
5 | 27:06.35 | 5:57.67 | 121985 | 148826
6 | 33:04.27 | 5:55.07 | 148827 | 175458
7 | 38:59.34 | 6:41.48 | 175459 | 205581
8 | 45:41.07 | 3:39.10 | 205582 | 222016


Track 1

Filename D:\_EAC\Dr. Lonnie Smith - Spiral (2010) [FLAC] {Palmetto PM 2142}\01 - Mellow Mood.wav

Pre-gap length 0:00:02.00

Peak level 99.2 %
Extraction speed 5.5 X
Track quality 100.0 %
Test CRC 918C9D75
Copy CRC 918C9D75
Accurately ripped (confidence 12) [A6153458] (AR v2)
Copy OK

Track 2

Filename D:\_EAC\Dr. Lonnie Smith - Spiral (2010) [FLAC] {Palmetto PM 2142}\02 - I've Never Been In Love Before.wav

Pre-gap length 0:00:01.30

Peak level 99.1 %
Extraction speed 6.3 X
Track quality 100.0 %
Test CRC 4543AAD0
Copy CRC 4543AAD0
Accurately ripped (confidence 12) [71749393] (AR v2)
Copy OK

Track 3

Filename D:\_EAC\Dr. Lonnie Smith - Spiral (2010) [FLAC] {Palmetto PM 2142}\03 - Frame For The Blues.wav

Pre-gap length 0:00:00.17

Peak level 99.6 %
Extraction speed 7.5 X
Track quality 100.0 %
Test CRC EC563FF5
Copy CRC EC563FF5
Accurately ripped (confidence 12) [8CC2DD8B] (AR v2)
Copy OK

Track 4

Filename D:\_EAC\Dr. Lonnie Smith - Spiral (2010) [FLAC] {Palmetto PM 2142}\04 - I Didn't Know What Time It Was.wav

Pre-gap length 0:00:00.56

Peak level 98.1 %
Extraction speed 8.3 X
Track quality 100.0 %
Test CRC A62B52A7
Copy CRC A62B52A7
Accurately ripped (confidence 12) [936F4164] (AR v2)
Copy OK

Track 5

Filename D:\_EAC\Dr. Lonnie Smith - Spiral (2010) [FLAC] {Palmetto PM 2142}\05 - Sweet & Lovely.wav

Pre-gap length 0:00:00.56

Peak level 99.4 %
Extraction speed 7.6 X
Track quality 99.9 %
Test CRC DDF6126A
Copy CRC DDF6126A
Accurately ripped (confidence 12) [6F1FB9CE] (AR v2)
Copy OK

Track 6

Filename D:\_EAC\Dr. Lonnie Smith - Spiral (2010) [FLAC] {Palmetto PM 2142}\06 - Spiral.wav

Pre-gap length 0:00:01.17

Peak level 99.6 %
Extraction speed 9.2 X
Track quality 100.0 %
Test CRC E08CC530
Copy CRC E08CC530
Accurately ripped (confidence 12) [D56411AC] (AR v2)
Copy OK

Track 7

Filename D:\_EAC\Dr. Lonnie Smith - Spiral (2010) [FLAC] {Palmetto PM 2142}\07 - Beehive.wav

Pre-gap length 0:00:01.17

Peak level 99.8 %
Extraction speed 9.9 X
Track quality 100.0 %
Test CRC A4E18505
Copy CRC A4E18505
Accurately ripped (confidence 12) [58EF39AA] (AR v2)
Copy OK

Track 8

Filename D:\_EAC\Dr. Lonnie Smith - Spiral (2010) [FLAC] {Palmetto PM 2142}\08 - Sukiyaki.wav

Pre-gap length 0:00:01.55

Peak level 99.6 %
Extraction speed 7.8 X
Track quality 99.9 %
Test CRC 77EAC69D
Copy CRC 77EAC69D
Accurately ripped (confidence 12) [91278123] (AR v2)
Copy OK


All tracks accurately ripped

No errors occurred

End of status report

–– CUETools DB Plugin V2.1.6

[CTDB TOCID: 9o0hUBeetO1XPoso1PT15lC.m9Y-] found
Submit result: 9o0hUBeetO1XPoso1PT15lC.m9Y- has been confirmed
Track | CTDB Status
1 | (11/12) Accurately ripped
2 | (12/12) Accurately ripped
3 | (12/12) Accurately ripped
4 | (12/12) Accurately ripped
5 | (12/12) Accurately ripped
6 | (12/12) Accurately ripped
7 | ( 9/12) Accurately ripped
8 | (12/12) Accurately ripped


==== Log checksum 21FF119986EBDF2E74B0CBA5BDA161FDC59837A72AD23C030F8B8AF771B45A56 ====


Dr. Lonnie Smith - Spiral (2010) {Palmetto PM 2142}

Dr. Lonnie Smith - Spiral (2010) {Palmetto PM 2142}


see more Dr. Lonnie Smith…


===