Subcategories

Drs. P - En Petit Comite - Amsterdams Philharmonisch Trio (1992) {Erasmus WVH 045}

Posted By: ruskaval
Drs. P - En Petit Comite - Amsterdams Philharmonisch Trio (1992) {Erasmus WVH 045}

Drs. P - En Petit Comité - Amsterdams Philharmonisch Trio (1992) {Erasmus WVH 045}
EAC rip (secure mode) | FLAC (tracks)+CUE+LOG -> 311 Mb | MP3 @320 -> 161 Mb
Full Artwork @ 300 dpi (jpg) -> 22 Mb | 5% repair rar
© 1992 Erasmus Muziekproducties / Wijnand Van Hooff | WVH 045
Folk / Neo Classical / Non-Music / Comedy / Poetry / Vocal / Dutch

Heinz Hermann Polzer (24 August 1919 – 13 June 2015), better known under his pseudonym Drs. P, was a Swiss singer-songwriter, poet, and prose writer in the Dutch language. Other pseudonyms were Geo Staad, Coos Neetebeem (a variant of the name of Dutch writer Cees Nooteboom) and drandus P. He had a characteristic, cracking, voice.

Personnel:
Drs. P - vocals, text, composer
Amsterdams Philharmonisch Trio
Paul Prenen - piano, arrangement
Taco Kooistra - cello, saw
Ernö Olah - viol

Works on This Recording
Broccoli (2:59)
Aubergine (2:25)
Olijf (2:01)
Ui (4:26)
Cocosnoot (3:40)
Harde Smart (4:57)
Augurk (3:45)
Mandarijn (2:12)
Zij Dwaalde Eenzaam (3:24)
Kersenboom (2:50)
Aardbeienwals (2:00)
Bieten (4:17)
Primavera (3:29)
Goud (3:53)
Treinen (2:17)
Immortelle (3:15)
Andantina (4:47)
Gabriel (3:43)
In Memoriam (7:50)

Exact Audio Copy V1.3 from 2. September 2016

EAC extraction logfile from 8. October 2018, 15:30

Drs. P, Amsterdams Philharmonisch Trio / Drs. P - En petit comité

Used drive : hp DVD-RAM UJ8D1 Adapter: 1 ID: 0

Read mode : Secure
Utilize accurate stream : Yes
Defeat audio cache : Yes
Make use of C2 pointers : No

Read offset correction : 6
Overread into Lead-In and Lead-Out : No
Fill up missing offset samples with silence : Yes
Delete leading and trailing silent blocks : No
Null samples used in CRC calculations : Yes
Used interface : Native Win32 interface for Win NT & 2000
Gap handling : Appended to previous track

Used output format : User Defined Encoder
Selected bitrate : 768 kBit/s
Quality : High
Add ID3 tag : No
Command line compressor : C:\Program Files (x86)\Exact Audio Copy\FLAC\FLAC.EXE
Additional command line options : -6 -V -T "ARTIST=%artist%" -T "TITLE=%title%" -T "ALBUM=%albumtitle%" -T "DATE=%year%" -T "TRACKNUMBER=%tracknr%" -T "GENRE=%genre%" -T "COMMENT=%comment%" -T "BAND=%albuminterpret%" -T "ALBUMARTIST=%albuminterpret%" -T "COMPOSER=%composer%" %haslyrics%–tag-from-file=LYRICS="%lyricsfile%"%haslyrics% -T "DISCNUMBER=%cdnumber%" -T "TOTALDISCS=%totalcds%" -T "TOTALTRACKS=%numtracks%" %hascover%–picture="%coverfile%"%hascover% %source% -o %dest%


TOC of the extracted CD

Track | Start | Length | Start sector | End sector
––––––––––––––––––––––––––––-
1 | 0:00.00 | 2:59.12 | 0 | 13436
2 | 2:59.12 | 2:25.23 | 13437 | 24334
3 | 5:24.35 | 2:01.05 | 24335 | 33414
4 | 7:25.40 | 4:26.40 | 33415 | 53404
5 | 11:52.05 | 3:40.25 | 53405 | 69929
6 | 15:32.30 | 4:57.62 | 69930 | 92266
7 | 20:30.17 | 3:45.15 | 92267 | 109156
8 | 24:15.32 | 2:12.58 | 109157 | 119114
9 | 26:28.15 | 3:24.12 | 119115 | 134426
10 | 29:52.27 | 2:50.15 | 134427 | 147191
11 | 32:42.42 | 2:00.30 | 147192 | 156221
12 | 34:42.72 | 4:17.15 | 156222 | 175511
13 | 39:00.12 | 3:29.00 | 175512 | 191186
14 | 42:29.12 | 3:53.50 | 191187 | 208711
15 | 46:22.62 | 2:17.08 | 208712 | 218994
16 | 48:39.70 | 3:15.70 | 218995 | 233689
17 | 51:55.65 | 4:47.72 | 233690 | 255286
18 | 56:43.62 | 3:43.68 | 255287 | 272079
19 | 60:27.55 | 7:50.37 | 272080 | 307366


Track 1

Filename C:\DP\01 Broccoli.wav

Pre-gap length 0:00:02.00

Peak level 98.9 %
Extraction speed 1.3 X
Track quality 100.0 %
Test CRC 3918DEE3
Copy CRC 3918DEE3
Accurately ripped (confidence 2) [3ABE328B] (AR v1)
Copy OK

Track 2

Filename C:\DP\02 Aubergine.wav

Pre-gap length 0:00:03.50

Peak level 92.1 %
Extraction speed 1.3 X
Track quality 100.0 %
Test CRC 74EEF757
Copy CRC 74EEF757
Accurately ripped (confidence 2) [DE4FB5B4] (AR v1)
Copy OK

Track 3

Filename C:\DP\03 Olijf.wav

Pre-gap length 0:00:05.08

Peak level 72.2 %
Extraction speed 1.3 X
Track quality 100.0 %
Test CRC FCFDDDEF
Copy CRC FCFDDDEF
Accurately ripped (confidence 2) [CA809A78] (AR v1)
Copy OK

Track 4

Filename C:\DP\04 Ui.wav

Pre-gap length 0:00:05.18

Peak level 85.0 %
Extraction speed 1.6 X
Track quality 100.0 %
Test CRC B746439D
Copy CRC B746439D
Accurately ripped (confidence 2) [4F3EEA4C] (AR v1)
Copy OK

Track 5

Filename C:\DP\05 Cocosnoot.wav

Pre-gap length 0:00:03.70

Peak level 98.7 %
Extraction speed 1.6 X
Track quality 100.0 %
Test CRC D2DA2570
Copy CRC D2DA2570
Accurately ripped (confidence 2) [424DA6FA] (AR v1)
Copy OK

Track 6

Filename C:\DP\06 Harde smart.wav

Pre-gap length 0:00:05.13

Peak level 79.2 %
Extraction speed 1.7 X
Track quality 99.9 %
Test CRC 2ED7434D
Copy CRC 2ED7434D
Cannot be verified as accurate (confidence 4) [198293DD], AccurateRip returned [26ABEE41] (AR v2)
Copy OK

Track 7

Filename C:\DP\07 Augurk.wav

Pre-gap length 0:00:05.00

Peak level 87.5 %
Extraction speed 1.9 X
Track quality 100.0 %
Test CRC BC9D6C52
Copy CRC BC9D6C52
Accurately ripped (confidence 2) [BFAFFC7B] (AR v1)
Copy OK

Track 8

Filename C:\DP\08 Mandarijn.wav

Pre-gap length 0:00:05.22

Peak level 90.9 %
Extraction speed 1.5 X
Track quality 99.9 %
Test CRC 68DAD191
Copy CRC 68DAD191
Accurately ripped (confidence 2) [36EEC51E] (AR v1)
Copy OK

Track 9

Filename C:\DP\09 Zij dwaalde eenzaam.wav

Pre-gap length 0:00:03.43

Peak level 81.5 %
Extraction speed 1.7 X
Track quality 99.9 %
Test CRC 6DB8AC97
Copy CRC 6DB8AC97
Accurately ripped (confidence 2) [3DD7605D] (AR v1)
Copy OK

Track 10

Filename C:\DP\10 Kersenboom.wav

Pre-gap length 0:00:04.30

Peak level 81.1 %
Extraction speed 2.0 X
Track quality 100.0 %
Test CRC DBD170B6
Copy CRC DBD170B6
Accurately ripped (confidence 2) [FEC721A1] (AR v1)
Copy OK

Track 11

Filename C:\DP\11 Aardbeienwals.wav

Pre-gap length 0:00:05.50

Peak level 82.7 %
Extraction speed 1.9 X
Track quality 100.0 %
Test CRC D5E96E35
Copy CRC D5E96E35
Accurately ripped (confidence 2) [9E7B37FA] (AR v1)
Copy OK

Track 12

Filename C:\DP\12 Bieten.wav

Pre-gap length 0:00:03.22

Peak level 97.4 %
Extraction speed 2.2 X
Track quality 100.0 %
Test CRC 2F86FC82
Copy CRC 2F86FC82
Accurately ripped (confidence 2) [B40A3DCF] (AR v1)
Copy OK

Track 13

Filename C:\DP\13 Primavera.wav

Pre-gap length 0:00:03.50

Peak level 77.4 %
Extraction speed 2.2 X
Track quality 100.0 %
Test CRC 61386366
Copy CRC 61386366
Accurately ripped (confidence 2) [0E93F3F9] (AR v1)
Copy OK

Track 14

Filename C:\DP\14 Goud.wav

Pre-gap length 0:00:04.07

Peak level 85.7 %
Extraction speed 2.3 X
Track quality 100.0 %
Test CRC 44A24A13
Copy CRC 44A24A13
Accurately ripped (confidence 2) [EEE38DE7] (AR v1)
Copy OK

Track 15

Filename C:\DP\15 Treinen.wav

Pre-gap length 0:00:04.02

Peak level 77.5 %
Extraction speed 1.8 X
Track quality 99.9 %
Test CRC 742CFB85
Copy CRC 742CFB85
Cannot be verified as accurate (confidence 4) [93336A18], AccurateRip returned [6EF6FFF9] (AR v2)
Copy OK

Track 16

Filename C:\DP\16 Immortelle.wav

Pre-gap length 0:00:03.40

Peak level 84.9 %
Extraction speed 2.4 X
Track quality 100.0 %
Test CRC 83C4F161
Copy CRC 83C4F161
Accurately ripped (confidence 2) [DDB5880D] (AR v1)
Copy OK

Track 17

Filename C:\DP\17 Andantina.wav

Pre-gap length 0:00:04.18

Peak level 65.2 %
Extraction speed 2.6 X
Track quality 100.0 %
Test CRC 2713B32E
Copy CRC 2713B32E
Accurately ripped (confidence 2) [42233A49] (AR v1)
Copy OK

Track 18

Filename C:\DP\18 Gabriël.wav

Pre-gap length 0:00:04.40

Peak level 82.1 %
Extraction speed 2.6 X
Track quality 100.0 %
Test CRC 4C04AEDA
Copy CRC 4C04AEDA
Accurately ripped (confidence 2) [987E5079] (AR v1)
Copy OK

Track 19

Filename C:\DP\19 In memoriam.wav

Pre-gap length 0:00:04.05

Peak level 90.5 %
Extraction speed 2.9 X
Track quality 100.0 %
Test CRC 75D276EE
Copy CRC 75D276EE
Accurately ripped (confidence 2) [76733D15] (AR v1)
Copy OK


17 track(s) accurately ripped
2 track(s) could not be verified as accurate

Some tracks could not be verified as accurate

No errors occurred

End of status report

–– CUETools DB Plugin V2.1.6

[CTDB TOCID: l6X0sF6XgiltpjnGssgvRX2cmdQ-] found
Submit result: l6X0sF6XgiltpjnGssgvRX2cmdQ- has been confirmed
Track | CTDB Status
1 | (11/11) Accurately ripped
2 | (11/11) Accurately ripped
3 | (11/11) Accurately ripped
4 | (11/11) Accurately ripped
5 | (11/11) Accurately ripped
6 | (11/11) Accurately ripped
7 | (11/11) Accurately ripped
8 | (11/11) Accurately ripped
9 | (10/11) Accurately ripped
10 | (11/11) Accurately ripped
11 | (10/11) Accurately ripped
12 | (10/11) Accurately ripped
13 | (10/11) Accurately ripped
14 | (11/11) Accurately ripped
15 | (11/11) Accurately ripped
16 | (10/11) Accurately ripped
17 | (11/11) Accurately ripped
18 | (11/11) Accurately ripped
19 | (11/11) Accurately ripped


==== Log checksum 3D4B4A6576FEC4ADC1761438BA13C4BD3EFCB9C4418E1F83CE42E7FAED2179CB ====


Drs. P - En Petit Comite - Amsterdams Philharmonisch Trio (1992) {Erasmus WVH 045}

Drs. P - En Petit Comite - Amsterdams Philharmonisch Trio (1992) {Erasmus WVH 045}



===