Subcategories

Duke Ellington - Paris, March 1964 (2013) {La Maison du Duke MDD 003}

Posted By: ruskaval
Duke Ellington - Paris, March 1964 (2013) {La Maison du Duke MDD 003}

Duke Ellington - Paris, March 1964 (2013) {La Maison du Duke MDD 003}
EAC rip (secure mode) | FLAC (tracks)+CUE+LOG -> 323 Mb | MP3 @320 -> 154 Mb
Full Artwork @ 600 dpi (jpg) -> 17 Mb | 5% repair rar
© 1964, 2013 La Maison du Duke | MDD 003
Jazz / Mainstream Jazz / Big Band

La Maison du Duke is proud to present a collection of unpublished recordings of Duke Ellington, which come from an important stock of Ellington archives (Clavié collection), acquired by the association, which only a few collectors had access to today . The CDs are reserved for members of the Maison du Duke association and are not intended to be marketed.
La Maison du Duke est fière de vous présenter une collection d’enregistrements inédits de Duke Ellington, qui roviennent d’un important stock d’archives ellingtoniennes (collection Clavié), acquis par l’association, auquel seuls quelques collectionneurs avaient accès à ce jour. Tirés en très faible quantité, les CDs sont réservés aux membres de l’association la Maison du Duke et n’ont pas vocation à être commercialisés.
Ce troisième volume de notre collection d’enregistrements inédits éditée par la Maison du Duke est un témoignage extrêmement éloquent de la tournée européenne effectuée par le grand homme et son équipe en 1964. Après deux semaines passées au Royaume-Uni, du 15 février au 1er mars, l’orchestre abordait le continent le 2, à Stuttgart, pour le parcourir en tous sens jusqu’au 23, date du dernier concert à Limoges. Ajoutez à ce planning vertigineux le fait qu’il donnait souvent deux concerts par jour et que certains musiciens effectuaient parfois l’après-midi des séances d’enregistrement, et cherchez au fil des plages un quelconque signe de lassitude… A noter, entre autres merveilles, cinq extraits (plages 2 à 5 et 13) de ce qui deviendra en 1966 la Far East Suite, qu’on entendait pour la première fois.

La Maison du Duke INFO

tracklist:
01 - Take The ''A'' Train
02 - Amad
03 - Agra
04 - Bluebird Of Delhi (Minah)
05 - Depk
06 - The Opener
07 - Happy Reunion
08 - Blow By Blow
09 - Harmony In Harlem
10 - Stompy Jones
11 - Caravan
12 - Tutti For Cootie (Fade Up)
13 - Isfahan
14 - Things Ain't What They Use To Be
15 - Banquet
16 - Skillipoop (Jungle Triangle)
17 - Satin Doll

Exact Audio Copy V1.1 from 23. June 2015

EAC extraction logfile from 28. February 2017, 12:50

Duke Ellington / Paris, March 1964

Used drive : TSSTcorpCDDVDW SE-208DB Adapter: 1 ID: 2

Read mode : Secure
Utilize accurate stream : Yes
Defeat audio cache : Yes
Make use of C2 pointers : No

Read offset correction : 6
Overread into Lead-In and Lead-Out : No
Fill up missing offset samples with silence : Yes
Delete leading and trailing silent blocks : No
Null samples used in CRC calculations : Yes
Used interface : Native Win32 interface for Win NT & 2000
Gap handling : Appended to previous track

Used output format : User Defined Encoder
Selected bitrate : 1024 kBit/s
Quality : High
Add ID3 tag : No
Command line compressor : C:\Program Files (x86)\FLAC Frontend\tools\flac.exe
Additional command line options : -8 -V -T "ARTIST=%artist%" -T "TITLE=%title%" -T "ALBUM=%albumtitle%" -T "DATE=%year%" -T "TRACKNUMBER=%tracknr%" -T "TOTALTRACKS=%numtracks%" -T "GENRE=%genre%" -T "ALBUMARTIST=%albumartist%" -T "ALBUM ARTIST=%albumartist%" -T "COMMENT=EAC Secure Mode, Test & Copy, AccurateRip, FLAC -8" %source%


TOC of the extracted CD

Track | Start | Length | Start sector | End sector
––––––––––––––––––––––––––––-
1 | 0:00.00 | 1:29.42 | 0 | 6716
2 | 1:29.42 | 5:24.29 | 6717 | 31045
3 | 6:53.71 | 2:27.34 | 31046 | 42104
4 | 9:21.30 | 3:32.37 | 42105 | 58041
5 | 12:53.67 | 3:09.06 | 58042 | 72222
6 | 16:02.73 | 3:10.02 | 72223 | 86474
7 | 19:13.00 | 3:53.65 | 86475 | 104014
8 | 23:06.65 | 5:06.53 | 104015 | 127017
9 | 28:13.43 | 1:36.62 | 127018 | 134279
10 | 29:50.30 | 3:34.20 | 134280 | 150349
11 | 33:24.50 | 5:33.34 | 150350 | 175358
12 | 38:58.09 | 6:37.16 | 175359 | 205149
13 | 45:35.25 | 5:02.34 | 205150 | 227833
14 | 50:37.59 | 3:16.65 | 227834 | 242598
15 | 53:54.49 | 3:02.67 | 242599 | 256315
16 | 56:57.41 | 4:11.35 | 256316 | 275175
17 | 61:09.01 | 3:42.59 | 275176 | 291884


Track 1

Filename D:\_EAC\Duke Ellington - Paris, March 1964 (2013) [FLAC] {La Maison du Duke MDD 003}\01 - Take The ''A'' Train.wav

Pre-gap length 0:00:02.00

Peak level 81.6 %
Extraction speed 2.3 X
Track quality 100.0 %
Test CRC 2B2B9BE6
Copy CRC 2B2B9BE6
Track not present in AccurateRip database
Copy OK

Track 2

Filename D:\_EAC\Duke Ellington - Paris, March 1964 (2013) [FLAC] {La Maison du Duke MDD 003}\02 - Amad.wav

Peak level 86.0 %
Extraction speed 2.7 X
Track quality 99.9 %
Test CRC 4A30298C
Copy CRC 4A30298C
Track not present in AccurateRip database
Copy OK

Track 3

Filename D:\_EAC\Duke Ellington - Paris, March 1964 (2013) [FLAC] {La Maison du Duke MDD 003}\03 - Agra.wav

Peak level 77.8 %
Extraction speed 3.1 X
Track quality 100.0 %
Test CRC 2EF077A8
Copy CRC 2EF077A8
Track not present in AccurateRip database
Copy OK

Track 4

Filename D:\_EAC\Duke Ellington - Paris, March 1964 (2013) [FLAC] {La Maison du Duke MDD 003}\04 - Bluebird Of Delhi (Minah).wav

Peak level 85.6 %
Extraction speed 2.7 X
Track quality 99.9 %
Test CRC E60ADDE9
Copy CRC E60ADDE9
Track not present in AccurateRip database
Copy OK

Track 5

Filename D:\_EAC\Duke Ellington - Paris, March 1964 (2013) [FLAC] {La Maison du Duke MDD 003}\05 - Depk.wav

Peak level 78.9 %
Extraction speed 3.5 X
Track quality 100.0 %
Test CRC D3A9A67D
Copy CRC D3A9A67D
Track not present in AccurateRip database
Copy OK

Track 6

Filename D:\_EAC\Duke Ellington - Paris, March 1964 (2013) [FLAC] {La Maison du Duke MDD 003}\06 - The Opener.wav

Peak level 87.5 %
Extraction speed 3.7 X
Track quality 100.0 %
Test CRC 4CEC250F
Copy CRC 4CEC250F
Track not present in AccurateRip database
Copy OK

Track 7

Filename D:\_EAC\Duke Ellington - Paris, March 1964 (2013) [FLAC] {La Maison du Duke MDD 003}\07 - Happy Reunion.wav

Peak level 72.0 %
Extraction speed 4.0 X
Track quality 100.0 %
Test CRC 76676416
Copy CRC 76676416
Track not present in AccurateRip database
Copy OK

Track 8

Filename D:\_EAC\Duke Ellington - Paris, March 1964 (2013) [FLAC] {La Maison du Duke MDD 003}\08 - Blow By Blow.wav

Peak level 79.3 %
Extraction speed 4.3 X
Track quality 100.0 %
Test CRC 00705041
Copy CRC 00705041
Track not present in AccurateRip database
Copy OK

Track 9

Filename D:\_EAC\Duke Ellington - Paris, March 1964 (2013) [FLAC] {La Maison du Duke MDD 003}\09 - Harmony In Harlem.wav

Peak level 77.4 %
Extraction speed 3.6 X
Track quality 100.0 %
Test CRC E33C2CAA
Copy CRC E33C2CAA
Track not present in AccurateRip database
Copy OK

Track 10

Filename D:\_EAC\Duke Ellington - Paris, March 1964 (2013) [FLAC] {La Maison du Duke MDD 003}\10 - Stompy Jones.wav

Peak level 88.9 %
Extraction speed 4.4 X
Track quality 100.0 %
Test CRC C3B6F76F
Copy CRC C3B6F76F
Track not present in AccurateRip database
Copy OK

Track 11

Filename D:\_EAC\Duke Ellington - Paris, March 1964 (2013) [FLAC] {La Maison du Duke MDD 003}\11 - Caravan.wav

Peak level 93.1 %
Extraction speed 4.8 X
Track quality 100.0 %
Test CRC EACCFA31
Copy CRC EACCFA31
Track not present in AccurateRip database
Copy OK

Track 12

Filename D:\_EAC\Duke Ellington - Paris, March 1964 (2013) [FLAC] {La Maison du Duke MDD 003}\12 - Tutti For Cootie (Fade Up).wav

Peak level 75.6 %
Extraction speed 5.2 X
Track quality 100.0 %
Test CRC A7DA3B50
Copy CRC A7DA3B50
Track not present in AccurateRip database
Copy OK

Track 13

Filename D:\_EAC\Duke Ellington - Paris, March 1964 (2013) [FLAC] {La Maison du Duke MDD 003}\13 - Isfahan.wav

Peak level 74.8 %
Extraction speed 4.4 X
Track quality 99.9 %
Test CRC 493C39D3
Copy CRC 493C39D3
Track not present in AccurateRip database
Copy OK

Track 14

Filename D:\_EAC\Duke Ellington - Paris, March 1964 (2013) [FLAC] {La Maison du Duke MDD 003}\14 - Things Ain't What They Use To Be.wav

Peak level 88.0 %
Extraction speed 3.9 X
Track quality 99.9 %
Test CRC A26A5D3D
Copy CRC A26A5D3D
Track not present in AccurateRip database
Copy OK

Track 15

Filename D:\_EAC\Duke Ellington - Paris, March 1964 (2013) [FLAC] {La Maison du Duke MDD 003}\15 - Banquet.wav

Peak level 75.3 %
Extraction speed 3.9 X
Track quality 99.9 %
Test CRC 785BB766
Copy CRC 785BB766
Track not present in AccurateRip database
Copy OK

Track 16

Filename D:\_EAC\Duke Ellington - Paris, March 1964 (2013) [FLAC] {La Maison du Duke MDD 003}\16 - Skillipoop (Jungle Triangle).wav

Peak level 91.1 %
Extraction speed 5.5 X
Track quality 100.0 %
Test CRC 759EF23C
Copy CRC 759EF23C
Track not present in AccurateRip database
Copy OK

Track 17

Filename D:\_EAC\Duke Ellington - Paris, March 1964 (2013) [FLAC] {La Maison du Duke MDD 003}\17 - Satin Doll.wav

Peak level 76.0 %
Extraction speed 4.4 X
Track quality 99.9 %
Test CRC 39404BD8
Copy CRC 39404BD8
Track not present in AccurateRip database
Copy OK


None of the tracks are present in the AccurateRip database

No errors occurred

End of status report

==== Log checksum FA3FFAA6532AD052511E4FC21CEE0A46960EFFC46EC094600F37A8FC6ECCD90D ====


Duke Ellington - Paris, March 1964 (2013) {La Maison du Duke MDD 003}

Duke Ellington - Paris, March 1964 (2013) {La Maison du Duke MDD 003}


see also:
Duke Ellington - The 1962 MOMA Recital - Piano Solo & Trio (2010) {La Maison du Duke MDD 001}
Duke Ellington - Stockholm, June 1963 (2012) {La Maison du Duke MDD 002}


NEXT -> Duke Ellington - Les Girls - with Ella Fitzgerald, Dinah Washington, The Girls - Suite & Toot Suite Premieres, 1958-1963 {La Maison du Duke MDD 004}

===