Subcategories

Duke Ellington - The Girls and Premieres 1958-1963 (2014) {La Maison du Duke MDD 004}

Posted By: ruskaval
Duke Ellington - The Girls and Premieres 1958-1963 (2014) {La Maison du Duke MDD 004}

Duke Ellington - The Girls and Premieres 1958-1963 (2014) {La Maison du Duke MDD 004}
EAC rip (secure mode) | FLAC (tracks)+CUE+LOG -> 308 Mb | MP3 @320 -> 150 Mb
Full Artwork @ 600 dpi (jpg) -> 22 Mb | 5% repair rar
© 1958-63, 2014 La Maison du Duke | MDD 004
Jazz / Mainstream Jazz / Big Band / Vocal Jazz / Progressive Jazz

La Maison du Duke is proud to present a collection of unpublished recordings of Duke Ellington, which come from an important stock of Ellington archives (Clavié collection), acquired by the association, which only a few collectors had access to today . The CDs are reserved for members of the Maison du Duke association and are not intended to be marketed.
La Maison du Duke est fière de vous présenter une collection d’enregistrements inédits de Duke Ellington, qui roviennent d’un important stock d’archives ellingtoniennes (collection Clavié), acquis par l’association, auquel seuls quelques collectionneurs avaient accès à ce jour. Tirés en très faible quantité, les CDs sont réservés aux membres de l’association la Maison du Duke et n’ont pas vocation à être commercialisés.
“Les Girls – with Ella Fitzgerald, Dinah Washington, The Girls Suite & Toot Suite Premieres, 1958-1963”

Voici le 4ème volume de la collection Clavié diffusée par la MDD, une compilation inédite de quatre événements vécus par Ellington et ses hommes à la gloire des femmes, invitées ou évoquées. On pourra y découvrir Ella Fitzgerald et le Duke dans l’émission de radio The Bell Telephone Hour (10 février 1959), Dinah Washington en concert à Detroit en 1963 dans une ambiance particulièrement électrique, la première publique de la Girls Suite au Festival de Monterey le 23 septembre 1961, et enfin la création en «live» de la Toot Suite le 15 août 1958, bien avant l’enregistrement officiel réalisé en studio.

La Maison du Duke INFO

tracklist:
DUKE ELLINGTON AND ELLA FITZGERALD
NBC telecast, “Bell Telephone Hour American Festival”, New York, February 10, 1959

01 - Medley

DUKE ELLINGTON AND HIS ORCHESTRA
Monterey Jazz Festival, Fair Grounds, Monterey, Cal., September 23, 1961
“The Girls Suite”

02 - Girls
03 - Sarah
04 - Lena
05 - Mahalia
06 - Dinah

DUKE ELLINGTON AND HIS ORCHESTRA WITH DINAH WASHINGTON
State Fair Grounds, Detroit, Mich., August 26, 1963

07 - Spoken Introduction by Duke Ellington
08 - Do Nothing Till You Hear From Me
09 - Evil Gal Blues

DUKE ELLINGTON AND HIS ORCHESTRA
Same date, Dinah Washington out

10 - Jam With Sam

DUKE ELLINGTON AND HIS ORCHESTRA
Sheraton Hotel, French Lick, Ind., August 15, 1958
“Toot Suite”

11 - Red Garter
12 - Red Shoes
13 - Red Carpet (parts 1,2,3)
14 - Ready Go

Exact Audio Copy V1.1 from 23. June 2015

EAC extraction logfile from 16. April 2017, 19:03

Duke Ellington / The Girls and Premieres 1958-1963

Used drive : TSSTcorpCDDVDW SE-208DB Adapter: 1 ID: 2

Read mode : Secure
Utilize accurate stream : Yes
Defeat audio cache : Yes
Make use of C2 pointers : No

Read offset correction : 6
Overread into Lead-In and Lead-Out : No
Fill up missing offset samples with silence : Yes
Delete leading and trailing silent blocks : No
Null samples used in CRC calculations : Yes
Used interface : Native Win32 interface for Win NT & 2000
Gap handling : Appended to previous track

Used output format : User Defined Encoder
Selected bitrate : 1024 kBit/s
Quality : High
Add ID3 tag : No
Command line compressor : C:\Program Files (x86)\FLAC Frontend\tools\flac.exe
Additional command line options : -8 -V -T "ARTIST=%artist%" -T "TITLE=%title%" -T "ALBUM=%albumtitle%" -T "DATE=%year%" -T "TRACKNUMBER=%tracknr%" -T "TOTALTRACKS=%numtracks%" -T "GENRE=%genre%" -T "ALBUMARTIST=%albumartist%" -T "ALBUM ARTIST=%albumartist%" -T "COMMENT=EAC Secure Mode, Test & Copy, AccurateRip, FLAC -8" %source%


TOC of the extracted CD

Track | Start | Length | Start sector | End sector
––––––––––––––––––––––––––––-
1 | 0:00.00 | 11:15.14 | 0 | 50638
2 | 11:15.14 | 3:45.57 | 50639 | 67570
3 | 15:00.71 | 1:59.71 | 67571 | 76566
4 | 17:00.67 | 3:14.26 | 76567 | 91142
5 | 20:15.18 | 3:53.32 | 91143 | 108649
6 | 24:08.50 | 4:26.27 | 108650 | 128626
7 | 28:35.02 | 1:23.41 | 128627 | 134892
8 | 29:58.43 | 2:57.20 | 134893 | 148187
9 | 32:55.63 | 2:39.05 | 148188 | 160117
10 | 35:34.68 | 5:36.68 | 160118 | 185385
11 | 41:11.61 | 4:53.23 | 185386 | 207383
12 | 46:05.09 | 4:46.31 | 207384 | 228864
13 | 50:51.40 | 8:30.04 | 228865 | 267118
14 | 59:21.44 | 4:05.55 | 267119 | 285548


Track 1

Filename D:\_EAC\Duke Ellington - The Girls and Premieres 1958-1963 (2014) [FLAC] {La Maison du Duke MDD 004}\01 - Medley.wav

Pre-gap length 0:00:02.00

Peak level 97.7 %
Extraction speed 3.5 X
Track quality 100.0 %
Test CRC 700315CE
Copy CRC 700315CE
Track not present in AccurateRip database
Copy OK

Track 2

Filename D:\_EAC\Duke Ellington - The Girls and Premieres 1958-1963 (2014) [FLAC] {La Maison du Duke MDD 004}\02 - Girls.wav

Peak level 89.9 %
Extraction speed 2.8 X
Track quality 99.9 %
Test CRC 7C0C0360
Copy CRC 7C0C0360
Track not present in AccurateRip database
Copy OK

Track 3

Filename D:\_EAC\Duke Ellington - The Girls and Premieres 1958-1963 (2014) [FLAC] {La Maison du Duke MDD 004}\03 - Sarah.wav

Peak level 73.1 %
Extraction speed 3.3 X
Track quality 100.0 %
Test CRC E2444114
Copy CRC E2444114
Track not present in AccurateRip database
Copy OK

Track 4

Filename D:\_EAC\Duke Ellington - The Girls and Premieres 1958-1963 (2014) [FLAC] {La Maison du Duke MDD 004}\04 - Lena.wav

Peak level 65.8 %
Extraction speed 3.8 X
Track quality 100.0 %
Test CRC 0AD53D36
Copy CRC 0AD53D36
Track not present in AccurateRip database
Copy OK

Track 5

Filename D:\_EAC\Duke Ellington - The Girls and Premieres 1958-1963 (2014) [FLAC] {La Maison du Duke MDD 004}\05 - Mahalia.wav

Peak level 97.7 %
Extraction speed 4.1 X
Track quality 100.0 %
Test CRC 1DCA41B0
Copy CRC 1DCA41B0
Track not present in AccurateRip database
Copy OK

Track 6

Filename D:\_EAC\Duke Ellington - The Girls and Premieres 1958-1963 (2014) [FLAC] {La Maison du Duke MDD 004}\06 - Dinah.wav

Peak level 96.8 %
Extraction speed 4.3 X
Track quality 100.0 %
Test CRC D92537A7
Copy CRC D92537A7
Track not present in AccurateRip database
Copy OK

Track 7

Filename D:\_EAC\Duke Ellington - The Girls and Premieres 1958-1963 (2014) [FLAC] {La Maison du Duke MDD 004}\07 - Spoken Introduction by Duke Ellington.wav

Peak level 89.9 %
Extraction speed 3.4 X
Track quality 100.0 %
Test CRC 82BE476F
Copy CRC 82BE476F
Track not present in AccurateRip database
Copy OK

Track 8

Filename D:\_EAC\Duke Ellington - The Girls and Premieres 1958-1963 (2014) [FLAC] {La Maison du Duke MDD 004}\08 - Do Nothing Till You Hear From Me.wav

Peak level 87.6 %
Extraction speed 3.3 X
Track quality 99.9 %
Test CRC F7C46350
Copy CRC F7C46350
Track not present in AccurateRip database
Copy OK

Track 9

Filename D:\_EAC\Duke Ellington - The Girls and Premieres 1958-1963 (2014) [FLAC] {La Maison du Duke MDD 004}\09 - Evil Gal Blues.wav

Peak level 78.0 %
Extraction speed 4.3 X
Track quality 100.0 %
Test CRC A2D95C5D
Copy CRC A2D95C5D
Track not present in AccurateRip database
Copy OK

Track 10

Filename D:\_EAC\Duke Ellington - The Girls and Premieres 1958-1963 (2014) [FLAC] {La Maison du Duke MDD 004}\10 - Jam With Sam.wav

Peak level 81.0 %
Extraction speed 4.9 X
Track quality 100.0 %
Test CRC 1C2A5647
Copy CRC 1C2A5647
Track not present in AccurateRip database
Copy OK

Track 11

Filename D:\_EAC\Duke Ellington - The Girls and Premieres 1958-1963 (2014) [FLAC] {La Maison du Duke MDD 004}\11 - Red Garter.wav

Peak level 66.3 %
Extraction speed 5.1 X
Track quality 100.0 %
Test CRC F33F6E32
Copy CRC F33F6E32
Track not present in AccurateRip database
Copy OK

Track 12

Filename D:\_EAC\Duke Ellington - The Girls and Premieres 1958-1963 (2014) [FLAC] {La Maison du Duke MDD 004}\12 - Red Shoes.wav

Peak level 97.7 %
Extraction speed 5.2 X
Track quality 100.0 %
Test CRC 1A91951D
Copy CRC 1A91951D
Track not present in AccurateRip database
Copy OK

Track 13

Filename D:\_EAC\Duke Ellington - The Girls and Premieres 1958-1963 (2014) [FLAC] {La Maison du Duke MDD 004}\13 - Red Carpet (parts 1,2,3).wav

Peak level 97.7 %
Extraction speed 5.8 X
Track quality 100.0 %
Test CRC 26FE193B
Copy CRC 26FE193B
Track not present in AccurateRip database
Copy OK

Track 14

Filename D:\_EAC\Duke Ellington - The Girls and Premieres 1958-1963 (2014) [FLAC] {La Maison du Duke MDD 004}\14 - Ready Go.wav

Peak level 97.7 %
Extraction speed 5.6 X
Track quality 100.0 %
Test CRC 38F59574
Copy CRC 38F59574
Track not present in AccurateRip database
Copy OK


None of the tracks are present in the AccurateRip database

No errors occurred

End of status report

==== Log checksum 32200D6DC17CC5D0BC8880F8F3C827413D14DD03A983F66A531001FA0190137F ====


Duke Ellington - The Girls and Premieres 1958-1963 (2014) {La Maison du Duke MDD 004}

Duke Ellington - The Girls and Premieres 1958-1963 (2014) {La Maison du Duke MDD 004}


see also:
Duke Ellington - The 1962 MOMA Recital - Piano Solo & Trio (2010) {La Maison du Duke MDD 001}
Duke Ellington - Stockholm, June 1963 (2012) {La Maison du Duke MDD 002}
Duke Ellington - Paris, March 1964 (2013) {La Maison du Duke MDD 003}


NEXT -> Duke Ellington - Welcome to the Clubs – Blue Note 1956-57, Hickory House 1957, Storyville 1959 {La Maison du Duke MDD 005}

===