Subcategories

Duke Ellington - The Great 1963 Paris Concert - Unissued Material (2016) {La Maison du Duke MDD 009}

Posted By: ruskaval
Duke Ellington - The Great 1963 Paris Concert - Unissued Material (2016) {La Maison du Duke MDD 009}

Duke Ellington - The Great 1963 Paris Concert - Unissued Material (2016) {La Maison du Duke MDD 009}
EAC rip (secure mode) | FLAC (tracks)+CUE+LOG -> 457 Mb | MP3 @320 -> 182 Mb
Full Artwork @ 600 dpi (jpg) -> 19 Mb | 5% repair rar
© 1963, 2016 La Maison du Duke | MDD 009
Jazz / Mainstream Jazz / Progressive Jazz

La Maison du Duke is proud to present a collection of unpublished recordings of Duke Ellington, which come from an important stock of Ellington archives (Clavié collection), acquired by the association, which only a few collectors had access to today . The CDs are reserved for members of the Maison du Duke association and are not intended to be marketed.
La Maison du Duke est fière de vous présenter une collection d’enregistrements inédits de Duke Ellington, qui roviennent d’un important stock d’archives ellingtoniennes (collection Clavié), acquis par l’association, auquel seuls quelques collectionneurs avaient accès à ce jour. Tirés en très faible quantité, les CDs sont réservés aux membres de l’association la Maison du Duke et n’ont pas vocation à être commercialisés.
Il s’agit d’enregistrements inédits réalisés au cours des deux concerts du 23 février. Certains titres (plages 2, 6, 9, 10) apparaissent ici dans des versions différentes, qu'on pourra comparer avec curiosité. Les autres sont passionnants à découvrir, en particulier l'extraordinaire "A" Train avec solo renversant du très grand Ernie Shepard. Autre soliste magistral, Paul Gonsalves, dans trois plages incandescentes (3, 4, 13). Le vertigineux Broadstream n’a jamais été gravé en studio. A noter encore Stompin' At The Savoy arrangé par Dick Vance et le New Concerto For Cootie, composé par le trompettiste à partir du Concerto de 1940. A noter enfin les deux ballades de Strayhorn pour Hodges (plages 5 & 10), le swing réjouissant du trio rythmique, les couleurs des ensembles, quelques joyeux chaos et un frisson permanent qui met l'âme et le corps en joie.

La Maison du Duke INFO

tracklist:
01 - Stompin' At The Savoy
02 - Pyramid
03 - Happy Reunion
04 - Broadstream
05 - Day Dream
06 - A Tone Parallel To Harlem
07 - Take The ''A'' Train
08 - Silk Lace
09 - New Concerto For Cootie
10 - The Star-Crossed Lovers
11 - Skin Deep
12 - Just Squeeze Me
13 - Diminuendo In Blue - Blow By Blow

Exact Audio Copy V1.1 from 23. June 2015

EAC extraction logfile from 6. July 2017, 12:13

Duke Ellington / The Great 1963 Paris Concert - Unissued Material

Used drive : TSSTcorpCDDVDW SE-208DB Adapter: 1 ID: 1

Read mode : Secure
Utilize accurate stream : Yes
Defeat audio cache : Yes
Make use of C2 pointers : No

Read offset correction : 6
Overread into Lead-In and Lead-Out : No
Fill up missing offset samples with silence : Yes
Delete leading and trailing silent blocks : No
Null samples used in CRC calculations : Yes
Used interface : Native Win32 interface for Win NT & 2000
Gap handling : Appended to previous track

Used output format : User Defined Encoder
Selected bitrate : 1024 kBit/s
Quality : High
Add ID3 tag : No
Command line compressor : C:\Program Files (x86)\FLAC Frontend\tools\flac.exe
Additional command line options : -8 -V -T "ARTIST=%artist%" -T "TITLE=%title%" -T "ALBUM=%albumtitle%" -T "DATE=%year%" -T "TRACKNUMBER=%tracknr%" -T "TOTALTRACKS=%numtracks%" -T "GENRE=%genre%" -T "ALBUMARTIST=%albumartist%" -T "ALBUM ARTIST=%albumartist%" -T "COMMENT=EAC Secure Mode, Test & Copy, AccurateRip, FLAC -8" %source%


TOC of the extracted CD

Track | Start | Length | Start sector | End sector
––––––––––––––––––––––––––––-
1 | 0:00.00 | 4:01.06 | 0 | 18080
2 | 4:01.06 | 4:35.00 | 18081 | 38705
3 | 8:36.06 | 4:27.74 | 38706 | 58804
4 | 13:04.05 | 5:33.66 | 58805 | 83845
5 | 18:37.71 | 4:24.11 | 83846 | 103656
6 | 23:02.07 | 14:25.43 | 103657 | 168574
7 | 37:27.50 | 4:20.02 | 168575 | 188076
8 | 41:47.52 | 4:45.63 | 188077 | 209514
9 | 46:33.40 | 3:18.07 | 209515 | 224371
10 | 49:51.47 | 4:39.67 | 224372 | 245363
11 | 54:31.39 | 11:53.45 | 245364 | 298883
12 | 66:25.09 | 3:45.57 | 298884 | 315815
13 | 70:10.66 | 7:44.25 | 315816 | 350640


Track 1

Filename D:\_EAC\Duke Ellington - The Great 1963 Paris Concert - Unissued Material (2016) [FLAC] {La Maison du Duke MDD 009}\01 - Stompin' At The Savoy.wav

Pre-gap length 0:00:02.00

Peak level 87.7 %
Extraction speed 1.1 X
Track quality 100.0 %
Test CRC 6A987FF0
Copy CRC 6A987FF0
Track not present in AccurateRip database
Copy OK

Track 2

Filename D:\_EAC\Duke Ellington - The Great 1963 Paris Concert - Unissued Material (2016) [FLAC] {La Maison du Duke MDD 009}\02 - Pyramid.wav

Peak level 63.5 %
Extraction speed 1.2 X
Track quality 100.0 %
Test CRC 00B4338B
Copy CRC 00B4338B
Track not present in AccurateRip database
Copy OK

Track 3

Filename D:\_EAC\Duke Ellington - The Great 1963 Paris Concert - Unissued Material (2016) [FLAC] {La Maison du Duke MDD 009}\03 - Happy Reunion.wav

Peak level 88.1 %
Extraction speed 1.3 X
Track quality 100.0 %
Test CRC 7FABA3BB
Copy CRC 7FABA3BB
Track not present in AccurateRip database
Copy OK

Track 4

Filename D:\_EAC\Duke Ellington - The Great 1963 Paris Concert - Unissued Material (2016) [FLAC] {La Maison du Duke MDD 009}\04 - Broadstream.wav

Peak level 98.4 %
Extraction speed 1.4 X
Track quality 100.0 %
Test CRC E6EACBDC
Copy CRC E6EACBDC
Track not present in AccurateRip database
Copy OK

Track 5

Filename D:\_EAC\Duke Ellington - The Great 1963 Paris Concert - Unissued Material (2016) [FLAC] {La Maison du Duke MDD 009}\05 - Day Dream.wav

Peak level 61.1 %
Extraction speed 1.5 X
Track quality 100.0 %
Test CRC 2584E5D1
Copy CRC 2584E5D1
Track not present in AccurateRip database
Copy OK

Track 6

Filename D:\_EAC\Duke Ellington - The Great 1963 Paris Concert - Unissued Material (2016) [FLAC] {La Maison du Duke MDD 009}\06 - A Tone Parallel To Harlem.wav

Peak level 98.8 %
Extraction speed 1.8 X
Track quality 100.0 %
Test CRC 83CEDD61
Copy CRC 83CEDD61
Track not present in AccurateRip database
Copy OK

Track 7

Filename D:\_EAC\Duke Ellington - The Great 1963 Paris Concert - Unissued Material (2016) [FLAC] {La Maison du Duke MDD 009}\07 - Take The ''A'' Train.wav

Peak level 76.0 %
Extraction speed 1.7 X
Track quality 100.0 %
Test CRC BB2AFE3E
Copy CRC BB2AFE3E
Track not present in AccurateRip database
Copy OK

Track 8

Filename D:\_EAC\Duke Ellington - The Great 1963 Paris Concert - Unissued Material (2016) [FLAC] {La Maison du Duke MDD 009}\08 - Silk Lace.wav

Peak level 59.2 %
Extraction speed 1.6 X
Track quality 99.9 %
Test CRC 8B5F6786
Copy CRC 8B5F6786
Track not present in AccurateRip database
Copy OK

Track 9

Filename D:\_EAC\Duke Ellington - The Great 1963 Paris Concert - Unissued Material (2016) [FLAC] {La Maison du Duke MDD 009}\09 - New Concerto For Cootie.wav

Peak level 68.6 %
Extraction speed 1.7 X
Track quality 100.0 %
Test CRC 46AA2785
Copy CRC 46AA2785
Track not present in AccurateRip database
Copy OK

Track 10

Filename D:\_EAC\Duke Ellington - The Great 1963 Paris Concert - Unissued Material (2016) [FLAC] {La Maison du Duke MDD 009}\10 - The Star-Crossed Lovers.wav

Peak level 67.3 %
Extraction speed 1.8 X
Track quality 100.0 %
Test CRC 5332CCCB
Copy CRC 5332CCCB
Track not present in AccurateRip database
Copy OK

Track 11

Filename D:\_EAC\Duke Ellington - The Great 1963 Paris Concert - Unissued Material (2016) [FLAC] {La Maison du Duke MDD 009}\11 - Skin Deep.wav

Peak level 92.2 %
Extraction speed 2.1 X
Track quality 100.0 %
Test CRC 808059E3
Copy CRC 808059E3
Track not present in AccurateRip database
Copy OK

Track 12

Filename D:\_EAC\Duke Ellington - The Great 1963 Paris Concert - Unissued Material (2016) [FLAC] {La Maison du Duke MDD 009}\12 - Just Squeeze Me.wav

Peak level 81.2 %
Extraction speed 1.6 X
Track quality 99.9 %
Test CRC 05A5C437
Copy CRC 05A5C437
Track not present in AccurateRip database
Copy OK

Track 13

Filename D:\_EAC\Duke Ellington - The Great 1963 Paris Concert - Unissued Material (2016) [FLAC] {La Maison du Duke MDD 009}\13 - Diminuendo In Blue - Blow By Blow.wav

Peak level 96.6 %
Extraction speed 2.2 X
Track quality 100.0 %
Test CRC 9533B7C3
Copy CRC 9533B7C3
Track not present in AccurateRip database
Copy OK


None of the tracks are present in the AccurateRip database

No errors occurred

End of status report

–– CUETools DB Plugin V2.1.6

[CTDB TOCID: BNTC.uC7Mtrey4DzqmLt8c5B7B8-] disk not present in database
Submit result: BNTC.uC7Mtrey4DzqmLt8c5B7B8- has been uploaded


==== Log checksum FFC8E0CC83BDBC00FAAE8F129059BBC2273E1C86B29DE9224A71C7ACEB728A5B ====


Duke Ellington - The Great 1963 Paris Concert - Unissued Material (2016) {La Maison du Duke MDD 009}

Duke Ellington - The Great 1963 Paris Concert - Unissued Material (2016) {La Maison du Duke MDD 009}


see also:
Duke Ellington - The 1962 MOMA Recital - Piano Solo & Trio (2010) {La Maison du Duke MDD 001}
Duke Ellington - Stockholm, June 1963 (2012) {La Maison du Duke MDD 002}
Duke Ellington - Paris, March 1964 (2013) {La Maison du Duke MDD 003}
Duke Ellington - The Girls and Premieres 1958-1963 (2014) {La Maison du Duke MDD 004}
Duke Ellington - Welcome To The Clubs: Blue Note 1956-57, Hickory House 1957, Storyville 1959 (2014) {La Maison du Duke MDD 005}

Duke Ellington - Rare Strayhorn: Billy Strayhorn with Duke Ellington 1941-1965 (2015) {La Maison du Duke MDD 006}
Duke Ellington - Elvin chez Duke - EuropeanTour - January 1966 (2015) {La Maison du Duke MDD 007}
Duke Ellington - The (almost) complete Jazz Violin Session - 1963 (2016) {La Maison du Duke MDD 008}



===